<?xml version="1.0" standalone="no"?>
<!DOCTYPE svg PUBLIC "-//W3C//DTD SVG 1.1//EN" "http://www.w3.org/Graphics/SVG/1.1/DTD/svg11.dtd">
<svg xmlns="http://www.w3.org/2000/svg">
<defs >
<font id="GochiHand" horiz-adv-x="976" ><font-face
    font-family="Gochi Hand"
    units-per-em="2048"
    panose-1="0 0 0 0 0 0 0 0 0 0"
    ascent="1579"
    descent="-835"
    alphabetic="0" />
<glyph unicode=" " glyph-name="space" horiz-adv-x="485" />
<glyph unicode="!" glyph-name="exclam" horiz-adv-x="520" d="M68 1147Q64 1161 62 1172T59 1194Q59 1222 76 1241T129 1260Q284 1260 299 1186Q317 1092 332 997T358 805T376 607T383 401Q383 381 381 363T373 330T357 306T328 297L244 309Q218 312 208 324T195
360Q187 543 155 743T68 1147ZM274 -84Q245 -84 220 -76T176 -52T146 -15T135 31Q135 73 168 99T258 125Q284 125 308 116T350 90T380 53T391 8Q391 -35 360 -59T274 -84Z" />
<glyph unicode="&quot;" glyph-name="quotedbl" horiz-adv-x="850" d="M365 1032Q370 1021 371 992T372 916Q372 780 362 691T333 550T289 478T234 457Q222 457 209 459T185 467T166 482T159 506Q159 537 164 606T169 772Q169 822 167 859T162 925T157 973T154
1008Q154 1043 187 1055T269 1067Q301 1067 329 1059T365 1032ZM694 1032Q699 1021 700 992T701 916Q701 780 691 691T662 550T618 478T563 457Q551 457 538 459T514 467T495 482T488 506Q488 537 493 606T498 772Q498 822 496 859T491 925T486 973T483 1008Q483
1043 516 1055T598 1067Q630 1067 658 1059T694 1032Z" />
<glyph unicode="#" glyph-name="numbersign" horiz-adv-x="930" d="M635 985Q641 1029 688 1032L758 1036Q807 1036 807 991V981L772 778V770Q772 745 801 745L864 752Q909 752 909 700L905 647Q902 599 856 596L764 590Q736 587 733 561L709 440V432Q709 421
715 415T737 408L795 410Q816 410 828 397T840 358L836 305Q833 257 786 254Q763 252 741 252T696 252Q669 249 664 223L627 57Q620 36 607 24T571 12Q554 10 536 9T496 8Q476 8 465 18T453 47Q453 50 453 54T455 63L487 205Q489 209 489 215Q489 238 461 238L401
236Q372 232 369 207L334 25Q325 -20 279 -20Q262 -22 243 -23T203 -25Q183 -25 172 -15T160 14Q160 17 160 21T162 31Q171 71 179 111T195 193V201Q195 212 188 218T166 225H117Q94 225 82 236T70 266Q70 271 70 274T72 283L86 336Q95 381 141 381H199Q228 381
231 410L250 535Q250 563 221 563H162Q139 563 127 574T115 604Q115 609 115 612T117 621L131 674Q140 719 186 719H248Q262 719 270 726T281 748L307 958Q313 1005 360 1008L436 1012Q458 1012 469 1001T481 969V958L455 752Q455 727 483 727L565 731Q593 731
596 760L635 985ZM406 424Q406 421 405 419T403 414Q403 393 426 393H500Q527 396 532 422L557 541Q557 544 558 546T559 551Q559 571 537 571H457Q427 568 424 541L406 424Z" />
<glyph unicode="$" glyph-name="dollar" horiz-adv-x="920" d="M461 1171Q462 1186 467 1199T484 1222T518 1239T571 1245Q597 1245 613 1229T629 1180L621 1036Q686 1028 724 1013T762 975Q762 966 759 954T743 913Q729 887 714 875T672 862H612L600 635Q654
600 711 559T815 469T892 368T922 256Q922 191 892 142T816 59T713 9T602 -8Q593 -8 584 -8T565 -6L557 -182Q556 -197 551 -210T534 -233T501 -250T446 -256Q420 -256 405 -239T389 -190L401 33Q346 56 297 90T212 167T154 262T133 369Q133 391 136 413T147 454T170
483T207 494Q215 494 221 493T236 489L254 483Q265 481 277 475T299 459T315 438T322 412Q322 359 346 315T412 236L426 524Q365 563 310 598T213 667T146 737T121 813Q121 861 151 899T230 966T337 1013T453 1038L461 1171ZM575 162Q589 160 603 159T631 158Q649
158 667 161T701 172T727 193T737 225Q737 245 725 270T692 322T644 374T588 418L575 162ZM342 823Q342 810 351 798T374 774T405 752T438 733L444 879Q425 877 407 874T374 864T351 848T342 823Z" />
<glyph unicode="%" glyph-name="percent" horiz-adv-x="1319" d="M705 1096Q714 1124 731 1137T770 1151Q779 1151 789 1149T811 1141L848 1122Q874 1110 886 1092T899 1051Q899 1034 893 1016Q855 903 816 793T735 571Q729 556 729 545Q729 528 743 528Q757 528
776 543Q829 578 889 598T1012 618Q1081 618 1132 592T1218 522T1269 424T1286 311Q1286 235 1259 172T1186 64T1078 -7T950 -33Q891 -33 839 -10T748 54T687 152T664 276Q664 296 666 317T672 358L680 408L674 410Q611 236 548 65T426 -281Q408 -336 360 -336Q351
-336 341 -334T317 -326L281 -307Q231 -283 231 -236Q231 -218 238 -201Q295 -32 355 133T477 465Q480 474 482 481T485 494Q485 504 475 504Q464 504 442 492Q408 472 370 462T291 451Q239 451 196 470T123 524T76 604T59 705Q59 731 63 754T72 797T83 831T92
852Q98 866 100 874T102 889Q102 894 100 896T98 903Q98 909 106 919T131 942Q173 971 219 986T311 1001Q362 1001 408 984T490 932T547 848T569 733Q569 731 575 746T591 783T611 831T627 874Q647 930 666 985T705 1096ZM983 133Q1014 133 1037 147T1076 185T1098
237T1106 295Q1106 330 1095 358T1064 407T1018 438T963 449Q949 449 933 446T901 437T873 420T856 397Q860 389 860 385Q860 379 858 370T854 348Q852 339 851 330T850 307Q850 278 858 247T884 191T926 149T983 133ZM246 739Q246 721 250 700T263 659T288 627T328
614Q356 614 371 641T387 705Q387 727 381 749T361 788T328 816T281 827Q270 827 263 817T253 793T248 764T246 739Z" />
<glyph unicode="&amp;" glyph-name="ampersand" horiz-adv-x="944" d="M895 109Q926 80 926 51Q926 21 891 -8Q859 -33 843 -40T813 -47Q798 -47 783 -41T752 -20L692 31Q677 43 659 43Q647 43 635 37Q590 14 540 1T434 -12Q379 -12 324 6T224 59T151 143T123
254Q123 319 148 369T217 459Q225 467 229 473T233 489Q233 496 231 502T225 516Q188 575 168 631T147 745Q147 815 172 872T242 969T347 1031T475 1053Q535 1053 593 1036T696 986T769 904T797 788Q797 724 775 675T716 588T629 519T526 465Q522 461 522 459Q522
453 530 445T549 424L623 348Q640 330 648 326T659 322Q665 322 668 328T673 342T675 360T676 375Q676 386 674 397T672 424Q672 441 690 451T743 471Q766 477 782 479T807 481Q852 481 858 453Q861 436 863 422T866 391Q866 353 855 311T819 221Q813 209 813 197Q813
180 829 164L895 109ZM342 764Q342 696 393 616Q406 594 426 594Q435 594 449 600Q476 613 504 630T554 667T590 709T604 758Q604 786 594 809T565 848T522 872T471 881Q449 881 426 876T385 859T354 823T342 764ZM459 158Q490 158 498 165T506 184Q506 201 492
215Q460 244 431 272T375 328Q360 346 344 346Q330 346 319 330Q316 320 314 310T311 289Q311 224 353 191T459 158Z" />
<glyph unicode="&apos;" glyph-name="quotesingle" horiz-adv-x="520" d="M365 1032Q370 1021 371 992T372 916Q372 780 362 691T333 550T289 478T234 457Q222 457 209 459T185 467T166 482T159 506Q159 537 164 606T169 772Q169 822 167 859T162 925T157 973T154
1008Q154 1043 187 1055T269 1067Q301 1067 329 1059T365 1032Z" />
<glyph unicode="(" glyph-name="parenleft" horiz-adv-x="580" d="M229 1122Q233 1140 241 1153T263 1176T300 1191T354 1196Q391 1196 411 1181T432 1137Q432 1130 430 1116T420 1063Q410 1014 401 954T384 826T372 688T367 545Q367 474 372 402T389 257T422
116T475 -18Q485 -39 498 -57T522 -91T541 -122T549 -152Q549 -169 537 -184T492 -223Q463 -243 447 -250T418 -258Q401 -258 379 -238T330 -182Q287 -121 256 -38T204 141T174 337T164 535Q164 681 182 829T229 1122Z" />
<glyph unicode=")" glyph-name="parenright" horiz-adv-x="580" d="M350 -184Q346 -202 338 -215T316 -238T280 -253T225 -258Q188 -258 168 -243T147 -199Q147 -192 149 -178T160 -125Q170 -76 179 -16T196 112T208 250T213 393Q213 536 190 681T104 956Q94 977
82 995T58 1029T39 1060T31 1090Q31 1107 43 1122T88 1161Q117 1181 133 1188T162 1196Q179 1196 201 1176T250 1120Q293 1059 324 976T376 797T406 600T416 403Q416 257 398 109T350 -184Z" />
<glyph unicode="*" glyph-name="asterisk" horiz-adv-x="707" d="M188 770Q180 770 167 770T139 768T111 767T92 766Q64 766 49 773T33 803Q33 810 36 827T45 861T61 892T86 905Q104 905 126 903T170 899T210 895T238 893Q255 893 262 896T270 911Q270 919 267
934T254 975Q243 1004 240 1021T236 1055Q236 1074 252 1085Q289 1107 312 1113T350 1120Q363 1120 370 1108T382 1078T389 1039T395 1000T404 970T420 958Q426 958 439 968T483 1010Q505 1031 520 1044T549 1057Q567 1057 580 1049T603 1028T618 1002T623 979Q623
967 606 951T568 920T530 890T512 866Q512 857 528 852T584 842Q627 836 650 829T674 801Q674 784 669 772T659 750Q641 718 625 707T598 696Q584 696 566 700T530 710T496 720T471 725Q460 725 457 720T453 700Q453 691 457 669T466 623T475 575T479 541Q479 526
466 516T435 500T398 490T365 487Q340 487 333 513T326 575Q326 606 323 631T305 657Q295 657 283 643T258 613T230 583T203 569Q184 569 173 572T156 580Q131 591 123 603T115 625Q115 637 130 655T174 702Q197 725 207 738T217 760Q217 765 211 767T188 770Z"
/>
<glyph unicode="+" glyph-name="plus" horiz-adv-x="995" d="M86 401Q54 401 37 416T20 457Q20 463 21 469T25 481L35 524Q50 586 113 586Q182 586 226 588T299 590Q336 590 350 603T365 639Q365 695 360 750T354 862Q354 896 368 916T416 942L479 954Q484 954
488 955T498 956Q556 956 559 893L569 653Q571 630 583 617T618 604Q690 604 760 612T903 621Q973 621 973 559L971 510Q968 441 899 438L625 422Q599 420 587 407T575 362Q575 347 575 328T573 288T572 247T571 209Q571 169 554 142T506 109L444 96Q439 94 435
94T426 94Q397 94 382 112T367 162Q367 211 369 259T371 356Q371 408 322 408Q265 408 206 406T86 401Z" />
<glyph unicode="," glyph-name="comma" horiz-adv-x="643" d="M496 121Q496 110 481 69T442 -27T385 -143T320 -255T256 -339T199 -373Q187 -373 169 -366T135 -349T106 -326T94 -301Q94 -291 114 -252T165 -150T229 -6T289 168Q295 188 306 199T336 211Q354 211
381 204T433 184T477 155T496 121Z" />
<glyph unicode="-" glyph-name="hyphen" horiz-adv-x="643" d="M109 350Q81 350 63 373T45 442Q45 482 81 502T203 530Q231 533 276 538T369 549T459 559T526 563Q563 563 583 541T604 463Q604 405 489 393Q474 391 445 388T378 379T301 369T223 360T156 353T109 350Z" />
<glyph unicode="." glyph-name="period" horiz-adv-x="643" d="M336 18Q307 18 282 27T237 51T208 88T197 133Q197 175 230 201T319 227Q345 227 369 218T412 192T442 155T453 111Q453 67 422 43T336 18Z" />
<glyph unicode="/" glyph-name="slash" horiz-adv-x="492" d="M272 1112Q282 1158 330 1161L424 1165Q453 1163 463 1150T473 1108Q420 797 363 488T233 -131Q227 -157 212 -165T172 -174L82 -164Q60 -162 49 -151T37 -119Q37 -116 37 -112T39 -102Q84 107 118
276T180 590T230 861T272 1112Z" />
<glyph unicode="0" glyph-name="zero" horiz-adv-x="1163" d="M57 393Q57 501 96 595T204 759T365 869T563 909Q676 909 775 872T947 770T1063 618T1106 432Q1106 367 1085 306T1026 192T934 95T815 20T676 -29T522 -47Q417 -47 331 -16T185 73T91 212T57 393ZM905
393Q905 460 875 520T793 625T671 696T522 723Q467 723 419 702T336 644T281 558T260 451Q260 301 336 219T549 137Q622 137 687 157T800 212T877 293T905 393Z" />
<glyph unicode="1" glyph-name="one" horiz-adv-x="827" d="M133 551Q105 524 74 524Q60 524 45 530T10 553Q-27 581 -27 612Q-27 632 -5 659T54 715T135 776T228 835T319 886T395 924Q414 932 430 936T463 940Q497 940 521 929T563 897T591 852T610 799T623 743T633
690Q641 649 649 596T665 485T678 371T690 266T697 182T700 131Q700 61 631 49Q593 41 581 40T565 39Q534 39 516 57T494 111Q483 245 469 377T426 641Q420 670 405 685T369 700Q349 700 319 684T256 645T191 597T133 551Z" />
<glyph unicode="2" glyph-name="two" horiz-adv-x="1004" d="M287 811Q273 788 257 776T221 764Q212 764 199 768T160 784Q113 810 113 850Q113 873 127 895Q154 937 190 972T273 1034T376 1075T500 1090Q569 1090 631 1069T740 1010T814 916T842 791Q842 708
809 630T724 478T605 338T473 213Q462 204 458 195T453 178Q453 167 463 160T494 152Q594 147 692 139T889 119Q956 110 956 53Q956 45 955 35T946 -4Q938 -38 916 -54T862 -70Q842 -70 799 -67T699 -58T575 -47T440 -35T305 -27T184 -23Q162 -23 147 -14T122 11T108
48T104 92Q104 120 116 140T152 178Q198 212 251 253T359 340T462 436T550 539T612 645T635 752Q635 788 621 816T582 865T525 896T459 907Q393 907 353 879T287 811Z" />
<glyph unicode="3" glyph-name="three" horiz-adv-x="1063" d="M408 446Q401 444 395 443T383 442Q352 442 335 461T313 514L307 555Q307 560 306 564T305 571Q305 600 318 617T353 644T402 657T457 662Q517 664 554 695T592 793Q592 830 572 855T522 897T455
920T385 928Q317 928 262 905T158 844Q126 821 102 821Q85 821 70 830T37 862Q14 893 6 909T-2 940Q-2 962 16 983T66 1024T140 1059T228 1086T323 1103T418 1110Q503 1110 572 1089T691 1030T766 939T793 821Q793 784 783 748T748 678Q733 658 733 647Q733 630
762 616Q817 590 857 554T922 473T960 378T973 274Q973 193 938 131T845 26T713 -39T559 -61Q489 -61 426 -44T311 8T222 92T168 207Q166 213 165 220T164 233Q164 261 184 277T236 293L301 287Q338 282 355 264T387 211Q399 183 421 166T470 140T528 128T588 125Q628
125 662 133T720 158T758 203T772 272Q772 320 753 358T702 423T632 464T553 479Q519 479 482 468T408 446Z" />
<glyph unicode="4" glyph-name="four" horiz-adv-x="969" d="M868 354Q902 352 921 336T940 289Q940 280 937 266T930 238T922 213T915 197Q907 179 894 175T867 169T845 160T836 131Q836 116 841 94T852 47T863 -4T868 -51Q868 -109 809 -127Q788 -134 774 -138T750
-144T733 -146T719 -147Q703 -147 691 -134T670 -98T654 -42T639 31Q630 76 624 105T609 150T590 173T563 182L373 197Q344 199 308 202T233 212T158 230T93 260T47 303T29 365Q29 391 37 415T57 463T83 510T111 555Q163 643 226 724T350 889Q375 921 375 958Q375
974 370 991T365 1024Q365 1045 376 1057T405 1075T444 1083T485 1085Q537 1085 561 1065T595 1017T605 964T610 924Q649 791 689 662T764 399Q770 376 784 367T821 356L868 354ZM455 377Q466 375 479 374T502 373Q520 373 530 381T541 406Q541 411 540 416T537
428Q530 450 524 473T510 523T493 578T469 643Q466 652 457 665T432 678Q414 678 397 655Q362 606 330 559T268 463Q258 443 258 430Q258 416 267 407T293 395L455 377Z" />
<glyph unicode="5" glyph-name="five" horiz-adv-x="1077" d="M885 1030Q920 1027 942 1010T973 956L979 932Q981 924 982 917T983 901Q983 876 968 861T924 844Q843 847 778 849T651 852Q576 852 504 849T362 838Q326 835 326 807Q326 788 358 776Q429 750 505
722T656 661T797 590T914 504T994 400T1024 274Q1024 197 992 134T902 26T760 -45T573 -70Q483 -70 394 -49T234 14T119 122T74 274Q74 312 81 341T102 399Q116 431 138 444T188 457L238 455Q309 452 309 406Q309 401 308 395T305 383Q293 345 293 313Q293 259
321 221T395 158T496 122T606 111Q711 111 767 144T823 238Q823 296 781 342T660 432T467 522T209 627Q102 672 102 772Q102 779 103 794T111 850Q120 913 154 948T252 995Q391 1018 506 1027T721 1036Q808 1036 885 1030Z" />
<glyph unicode="6" glyph-name="six" horiz-adv-x="1038" d="M756 893Q784 868 784 840Q784 808 752 778L727 756Q713 743 698 737T668 731Q641 731 610 750Q578 768 550 777T494 786Q447 786 407 762T336 698T289 607T272 500Q272 475 276 447T289 393Q294 381
302 375T319 369Q332 369 344 375Q432 421 530 449T735 477Q793 477 847 462T944 418T1011 344T1036 242Q1036 175 1007 122T927 33T812 -23T674 -43Q539 -43 429 -4T240 105T118 266T74 465Q74 560 106 651T200 813T348 927T543 971Q608 971 660 951T756 893ZM831
217Q831 241 816 256T779 281T730 293T682 297Q632 297 579 286T471 252Q459 247 452 239T444 223Q444 205 469 193Q531 162 581 153T684 143Q756 143 793 164T831 217Z" />
<glyph unicode="7" glyph-name="seven" horiz-adv-x="1065" d="M178 397Q144 397 125 414T106 467Q106 488 109 507T122 542T146 568T186 580Q267 586 350 589T514 592Q565 592 565 643Q565 660 564 677T561 711Q556 742 542 762T498 793Q467 804 423 813T327
828T221 837T115 840Q93 840 72 839T31 838Q-47 838 -47 909L-45 938Q-43 976 -22 997T37 1018Q65 1018 92 1019T147 1020Q188 1020 226 1019T303 1016Q353 1013 408 1008T519 991T624 958T713 901Q732 883 743 857T759 796T765 721T768 633Q768 586 819 580Q875
575 931 569T1042 555Q1073 550 1090 534T1108 494Q1108 484 1104 471T1087 428Q1064 371 1006 371Q992 371 966 374T912 381T858 388T821 391Q795 391 783 380T768 342Q766 267 764 192T758 41Q755 -31 682 -47Q663 -51 652 -53T634 -56T624 -57T618 -57Q556 -57
553 12L565 356Q563 381 551 395T514 410Q461 410 408 408T309 404T229 399T178 397Z" />
<glyph unicode="8" glyph-name="eight" horiz-adv-x="1122" d="M526 1036Q598 1036 669 1017T798 960T890 864T926 731Q926 690 909 651Q906 642 904 636T901 621Q901 599 922 582Q979 526 1010 456T1042 311Q1042 219 1000 152T891 40T738 -27T567 -49Q514 -49
459 -40T352 -11T254 38T174 108T120 200T100 315Q100 380 122 444T184 563Q201 582 201 600Q201 614 190 633Q169 675 163 703T156 756Q156 833 187 886T271 973T389 1021T526 1036ZM784 430Q770 444 757 455T729 475Q718 483 709 485T688 487Q683 487 678 487T666
485Q635 479 605 477T545 475Q471 475 401 494Q377 500 365 500Q358 500 356 498L348 492Q333 479 324 461T309 423T301 382T299 342Q299 288 324 249T390 183T481 144T580 131Q640 131 690 142T775 173T830 223T850 291Q850 322 834 357T784 430ZM487 858Q465
858 441 856T398 848T365 828T352 793Q352 777 359 761T383 727Q402 705 428 705Q433 705 437 705T449 707Q473 713 500 716T553 719Q614 719 670 707Q711 696 721 696Q727 696 727 702Q727 746 702 776T640 824T562 850T487 858Z" />
<glyph unicode="9" glyph-name="nine" horiz-adv-x="1026" d="M950 864Q967 850 975 836T983 807Q983 793 975 779T944 745Q921 724 910 702T895 649Q884 546 881 442T877 233Q877 150 881 68T891 -96V-111Q891 -176 821 -188L778 -197Q772 -199 767 -199T756
-199Q692 -199 686 -127Q674 23 674 178Q674 210 675 252T679 333T682 405T684 451Q684 481 662 481Q649 481 631 469Q549 413 461 383T287 352Q228 352 170 373T64 431T-13 520T-43 633Q-43 706 -13 761T67 856T178 924T305 967T428 990T532 997Q653 997 758 965T950
864ZM594 653Q614 670 632 688T666 727Q678 742 678 758Q678 784 643 795Q608 806 571 810T496 815Q482 815 468 815T440 813Q409 810 362 803T269 779T192 735T160 666Q160 609 204 574T330 539Q367 539 402 548T471 573T535 609T594 653Z" />
<glyph unicode=":" glyph-name="colon" horiz-adv-x="643" d="M336 18Q307 18 282 27T237 51T208 88T197 133Q197 175 230 201T319 227Q345 227 369 218T412 192T442 155T453 111Q453 67 422 43T336 18ZM336 530Q307 530 282 539T237 563T208 600T197 645Q197
687 230 713T319 739Q345 739 369 730T412 704T442 667T453 623Q453 579 422 555T336 530Z" />
<glyph unicode=";" glyph-name="semicolon" horiz-adv-x="643" d="M496 121Q496 110 481 69T442 -27T385 -143T320 -255T256 -339T199 -373Q187 -373 169 -366T135 -349T106 -326T94 -301Q94 -291 114 -252T165 -150T229 -6T289 168Q295 188 306 199T336 211Q354
211 381 204T433 184T477 155T496 121ZM336 530Q307 530 282 539T237 563T208 600T197 645Q197 687 230 713T319 739Q345 739 369 730T412 704T442 667T453 623Q453 579 422 555T336 530Z" />
<glyph unicode="&lt;" glyph-name="less" horiz-adv-x="670" d="M403 905Q422 924 442 924Q463 924 479 909L535 868Q557 849 557 829Q557 811 539 793Q508 761 472 723T401 643T335 558T283 473Q274 460 274 444Q274 425 293 405T344 363T414 322T494 283T571
251T635 227Q670 214 670 188Q670 178 660 155T633 109T597 67T561 49Q556 49 551 49T539 53Q485 72 432 96T326 147Q290 166 243 190T155 246T86 315T57 397Q57 432 73 474T117 561T180 652T254 743T331 829T403 905Z" />
<glyph unicode="=" glyph-name="equal" horiz-adv-x="930" d="M127 514Q78 514 78 557Q78 560 78 564T80 573L98 653Q110 698 158 698Q326 700 492 709T825 731H836Q876 728 879 686L874 602Q871 552 821 549Q647 536 474 526T127 514ZM102 197Q53 197 53 240Q53
243 53 247T55 256L74 336Q86 381 133 381Q217 382 296 384T455 391T613 400T776 412H786Q808 410 817 399T829 367L825 283Q822 232 772 229Q685 223 597 218T422 208T255 201T102 197Z" />
<glyph unicode="&gt;" glyph-name="greater" horiz-adv-x="670" d="M266 68Q248 49 227 49Q208 49 190 63L135 104Q113 124 113 143Q113 162 131 180Q162 211 198 249T269 330T335 415T387 500Q392 508 393 515T395 528Q395 547 376 568T325 610T255 651T175 689T98
721T35 745Q0 759 0 784Q0 794 10 817T37 864T72 906T109 924Q114 924 119 924T131 920Q185 901 238 877T344 825Q380 807 426 782T514 726T583 658T612 575Q612 522 577 456T489 321T376 186T266 68Z" />
<glyph unicode="?" glyph-name="question" horiz-adv-x="1030" d="M516 18Q487 18 462 27T417 51T388 88T377 133Q377 175 410 201T500 227Q526 227 550 218T592 192T622 155T633 111Q633 67 602 43T516 18ZM170 741Q150 684 102 684Q83 684 63 692L12 713Q-41
737 -41 780Q-41 798 -31 821Q171 1253 582 1253Q671 1253 745 1226T874 1149T958 1032T989 883Q989 810 962 744T885 620T761 517T594 440Q576 434 557 434Q516 434 483 467L471 479Q444 504 444 530Q444 549 458 565T500 592Q581 623 635 655T723 720T771 789T786
866Q786 909 768 946T718 1010T644 1053T553 1069Q425 1069 331 989T170 741Z" />
<glyph unicode="@" glyph-name="at" horiz-adv-x="2023" d="M1931 655Q1931 559 1898 471T1802 317T1651 210T1450 170Q1405 170 1360 183T1274 222T1203 286T1157 373H1151Q1070 274 981 225T807 176Q720 176 672 225T623 360Q623 414 647 474T713 593T808 704T922
797T1043 861T1161 885Q1206 885 1248 871T1323 830T1375 768T1395 688Q1395 667 1387 649T1366 617T1336 593T1300 582V571Q1300 514 1318 473T1366 404T1429 365T1495 352Q1556 352 1599 372T1671 428T1712 517T1726 633Q1726 718 1695 780T1611 887T1493 960T1358
1004T1222 1026T1102 1032Q1025 1032 937 1020T761 982T592 914T449 814T350 678T313 504Q313 409 347 325T442 171T582 45T754 -49T944 -108T1137 -129Q1220 -129 1300 -113T1454 -61Q1462 -58 1469 -56T1483 -53Q1506 -53 1526 -82L1559 -137Q1564 -145 1565
-153T1567 -168Q1567 -197 1538 -211Q1436 -264 1335 -286T1130 -309Q1015 -309 895 -288T662 -223T449 -115T275 38T157 236T113 479Q113 575 147 667T245 841T401 992T608 1112T860 1191T1151 1219Q1253 1219 1351 1203T1535 1155T1694 1076T1819 966T1901 825T1931
655ZM1126 612Q1142 641 1154 656T1186 676Q1177 687 1165 692T1133 698Q1105 698 1070 683T999 643T929 586T867 520T824 453T807 393Q807 365 848 365Q910 365 982 427T1126 612Z" />
<glyph unicode="A" glyph-name="A" horiz-adv-x="1208" d="M63 199Q46 199 38 216T29 264Q29 269 29 275T31 301Q34 373 102 385L125 387Q148 390 161 401T180 434Q197 491 214 549T250 664Q260 696 270 732T293 805T322 876T360 940Q369 952 385 965T421 988T465
1005T512 1012Q542 1012 571 993Q610 966 648 928T733 831T842 689T991 487Q1004 472 1018 465T1053 457H1110Q1145 457 1164 441T1184 395Q1184 389 1184 381T1180 365L1161 309Q1159 301 1158 295T1157 283Q1157 262 1171 240L1278 94Q1296 67 1296 43Q1296 7
1255 -20L1217 -47Q1203 -56 1191 -61T1165 -66Q1147 -66 1132 -56T1102 -27Q1054 41 1006 107T907 238Q884 270 846 270Q724 265 605 257T365 236Q322 232 311 190L266 25Q248 -41 186 -41H170L139 -37Q105 -34 88 -16T70 31Q70 37 71 44T74 59Q79 79 84 100T96
141Q98 149 99 155T100 168Q100 199 76 199H63ZM539 727Q529 736 521 742T504 748Q479 748 469 713Q449 654 431 597T393 479Q391 474 391 470T391 461Q391 424 430 424H440Q500 432 560 436T680 444Q700 446 711 454T723 477Q723 490 711 508Q669 564 627 618T539
727Z" />
<glyph unicode="B" glyph-name="B" horiz-adv-x="1047" d="M209 -88Q193 96 168 276T106 639Q103 651 99 658T86 666Q80 666 73 665T57 664Q19 664 -2 683T-23 731Q-23 764 4 795T77 853T180 904T299 943T421 969T530 979Q619 979 683 957T789 899T850 816T870
719Q870 669 849 610T776 496Q770 489 768 485T766 475Q766 466 786 463Q844 458 898 435T994 376T1060 290T1085 186Q1085 109 1056 52T974 -44T851 -100T696 -119Q631 -119 566 -108T438 -78Q434 -76 426 -76Q409 -76 399 -96Q382 -130 351 -149T287 -168Q258
-168 236 -150T209 -88ZM403 293Q381 285 381 262Q381 259 383 240T390 199Q394 173 399 143Q402 117 426 111Q457 102 494 93T571 75T652 62T731 57Q760 57 787 63T835 84T868 119T881 172Q881 217 856 248T793 298T710 325T625 334Q571 334 516 322T403 293ZM326
770Q315 767 309 763T303 748Q303 737 307 709T318 644T332 570T346 500Q348 481 354 474T371 467Q377 467 386 469T412 477Q453 490 498 506T581 546T643 600T668 674Q668 707 654 729T615 766T557 787T485 793Q445 793 405 787T326 770Z" />
<glyph unicode="C" glyph-name="C" horiz-adv-x="1110" d="M504 872Q448 872 401 846T318 773T262 663T242 528Q242 454 275 392T368 283T508 210T684 184Q753 184 814 196T922 230T995 279T1022 340Q1022 365 1013 381T993 411T972 438T963 473Q963 493 973 511T1000
543T1040 565T1087 573Q1116 573 1141 558T1185 517T1214 455T1225 379Q1225 298 1182 229T1063 109T883 31T657 2Q522 2 408 38T212 140T83 294T37 489Q37 605 77 708T188 888T351 1010T551 1055Q598 1055 637 1045T706 1015T751 971T768 915Q768 891 758 870T730
832T691 805T643 795Q617 795 602 807T573 833T545 860T504 872Z" />
<glyph unicode="D" glyph-name="D" horiz-adv-x="1335" d="M-14 764Q-27 762 -36 761T-51 760Q-85 762 -99 779T-113 838Q-113 919 -35 940Q34 956 113 963T289 971Q419 971 547 946T792 878T1009 775T1182 646T1297 500T1339 346Q1339 268 1287 198T1145 73T939
-13T694 -45Q592 -45 481 -26T236 35Q174 52 174 111Q174 124 180 135T192 156T205 175T211 195Q211 252 206 317T191 447T169 571T143 677T117 750T92 778Q75 778 51 774T-14 764ZM371 780Q342 780 342 760Q342 755 345 743T354 705Q363 663 371 615T387 508T402
375T418 209Q419 194 445 181T514 157T612 140T727 133Q805 133 876 151T1002 201T1089 273T1122 358Q1122 431 1065 500T906 625T668 722T371 780Z" />
<glyph unicode="E" glyph-name="E" horiz-adv-x="1276" d="M160 246Q157 246 151 245T137 243T122 241T111 240Q83 240 62 263T41 326Q41 352 58 376T111 416Q122 421 128 427T135 446Q135 478 134 514T129 600Q128 610 123 619T111 639T99 665T94 700Q94 719
99 743T122 789T171 825T254 840Q275 840 289 836T313 827T332 817T350 813Q366 813 414 819T529 836T678 861T844 891T1008 925T1153 958Q1173 963 1188 963Q1209 963 1221 954T1240 930T1247 899T1249 866Q1249 840 1232 818T1174 782Q1075 753 975 732T772 693T567
661T362 633Q348 631 341 623T334 600V559Q334 542 335 524T339 491T349 467T365 457Q389 457 439 467T553 491T686 523T818 555T927 580T993 590Q1021 590 1035 570T1055 518Q1055 513 1056 509T1057 500Q1057 471 1040 447T977 410Q965 406 929 398T844 378T738
353T626 328T524 304T446 285Q419 278 414 274T408 264Q410 242 430 223T482 188T553 159T635 138T719 124T795 119Q810 119 838 119T899 120T968 125T1032 133T1079 147T1098 168Q1098 179 1091 191T1083 217Q1083 237 1094 256T1122 291T1162 316T1208 326Q1237
326 1261 315T1302 285T1329 242T1339 193Q1339 127 1291 79T1164 0T988 -47T791 -63Q675 -63 579 -48T407 2T276 90T186 223Q174 246 160 246Z" />
<glyph unicode="F" glyph-name="F" horiz-adv-x="1049" d="M240 731Q221 731 196 725T144 710T91 695T43 688Q21 688 9 695T-10 715T-17 741T-18 768Q-18 806 4 830T69 870T170 898T305 924Q423 946 520 958T706 975T880 982T1059 983Q1087 983 1103 976T1126
958T1135 933T1137 905Q1137 889 1133 871T1118 837T1090 811T1047 801H967Q919 801 865 801T758 799T657 794T571 786T511 772T489 752Q489 740 498 712T520 652T546 588T569 535Q577 518 587 512T614 506Q655 506 698 511T784 522T871 534T958 539Q982 539 997
531T1022 510T1034 483T1038 459Q1038 414 1010 392T934 358T823 343T688 332L664 330Q651 328 644 321T637 303Q637 300 638 298T639 293Q648 260 660 220T682 139T700 63T707 4Q707 -42 673 -66T575 -90Q552 -90 531 -80T504 -41Q488 41 468 119T426 276Q417
303 391 303Q361 303 324 305T247 313T172 328T107 354T61 392T43 444Q43 463 52 481T75 514T105 538T137 547Q155 547 176 538T221 518T272 498T332 489Q348 489 348 506Q348 522 343 548T328 602T308 658T283 705Q275 717 267 724T240 731Z" />
<glyph unicode="G" glyph-name="G" horiz-adv-x="1292" d="M498 1034Q519 1047 541 1052T582 1057Q607 1057 627 1049T661 1027T682 998T690 965Q690 943 676 923T635 889Q583 859 548 838T489 800T446 768T410 735Q384 711 360 680T318 619T288 560T276 514Q276
499 284 490T307 481Q323 481 342 492Q403 526 470 553T607 599T745 627T879 637Q982 637 1068 615T1216 552T1312 456T1346 332Q1346 257 1303 188T1185 67T1008 -16T788 -47Q631 -47 501 -15T277 76T132 214T80 391Q80 486 106 577T185 751T316 905T498 1034ZM1145
297Q1145 331 1124 359T1064 407T971 438T850 449Q725 449 606 415T381 315Q356 299 356 276Q356 260 374 244T423 212T496 183T585 159T682 143T780 137Q857 137 923 149T1039 183T1117 234T1145 297Z" />
<glyph unicode="H" glyph-name="H" horiz-adv-x="1169" d="M705 758Q705 769 700 791T688 841T672 902T656 966T644 1024T639 1069Q639 1092 652 1106T685 1129T728 1140T772 1143Q798 1143 822 1129T856 1077Q867 1038 874 999T888 922T899 849T911 784Q917 760
926 746T949 725T978 715T1012 713Q1032 713 1055 717T1100 721Q1114 721 1127 717T1152 701T1169 669T1176 618Q1176 592 1166 575T1128 551L1092 543Q1075 540 1061 539T1024 535Q977 530 977 494Q977 491 981 467T991 408T1006 330T1021 248T1035 179T1044 135Q1049
113 1052 101T1055 68Q1055 52 1046 37T1020 9T977 -10T920 -18Q885 -18 870 3T848 53Q835 105 824 160T802 269T782 374T764 473Q759 495 746 505T713 516Q645 516 577 512T442 504Q419 502 406 489T393 455Q393 408 394 362T395 268Q395 213 394 155T389 43Q387
23 378 10T354 -11T321 -22T283 -25Q236 -25 210 -10T184 43Q184 99 187 160T190 283Q190 325 189 364T188 446Q188 465 180 474T159 490T132 501T105 518T85 550T76 608Q76 628 83 639T102 658T127 669T151 681T170 698T178 729Q178 741 177 757T175 789T173 815T172
831Q172 865 181 885T205 916T236 930T270 934Q330 934 353 912T379 846L383 741Q385 717 396 705T432 692L659 700Q688 702 696 716T705 758Z" />
<glyph unicode="I" glyph-name="I" horiz-adv-x="492" d="M102 934Q102 952 111 967T136 994T173 1013T219 1020Q266 1020 288 1005T315 958Q332 825 343 707T362 481T372 275T375 84Q375 34 340 9T236 -16Q205 -16 188 -2T170 41Q170 213 160 363T136 631T113
826T102 934Z" />
<glyph unicode="J" glyph-name="J" horiz-adv-x="1085" d="M162 809Q142 811 124 822T93 850T71 889T63 934Q63 963 77 980T115 997Q128 997 157 994T225 987T311 977T406 967T502 959T590 956Q613 956 631 961T670 979Q705 1004 750 1018T846 1032Q895 1032 950
1015T1051 971T1128 912T1159 852Q1159 830 1150 815T1115 791T1047 775T936 764Q913 762 902 751T891 719Q891 701 900 658T921 551T942 406T952 231Q952 136 926 59T850 -74T732 -158T578 -188Q503 -188 433 -166T300 -105T187 -11T98 110T41 251T20 406Q20 443
42 467T98 492Q129 492 157 485T205 465T238 435T250 399Q250 318 279 244T359 114T475 25T614 -8Q679 -8 714 40T750 180Q750 295 731 424T674 707Q659 761 614 764Q494 770 381 781T162 809Z" />
<glyph unicode="K" glyph-name="K" horiz-adv-x="1128" d="M983 946Q983 907 958 873T894 807T810 745T727 684T663 621T637 553Q637 523 679 495T800 439T991 382T1243 319Q1313 300 1313 248Q1313 228 1304 209T1278 176T1242 152T1200 143Q1150 143 1087 158T955
195T819 243T692 292T587 329T518 344Q500 344 484 328T454 282T431 214T418 127Q413 74 381 49T291 23Q232 23 223 78Q208 162 187 249T140 423T85 595T23 758Q15 775 12 789T8 819Q8 832 16 843T38 864T70 878T109 883Q150 883 174 866T223 815Q235 799 246 773T267
716T287 656T306 601T325 561T344 545Q352 545 357 552T371 573Q423 681 485 770T612 923T742 1022T868 1057Q892 1057 913 1049T949 1025T974 990T983 946Z" />
<glyph unicode="L" glyph-name="L" horiz-adv-x="750" d="M342 -68Q313 -73 290 -79T233 -86Q196 -86 176 -65T156 -18Q156 3 163 36T170 104Q163 233 152 359T129 591T110 770T102 872Q102 890 111 905T136 933T173 951T219 958Q266 958 288 944T315 897Q343
682 355 503T373 166Q373 143 385 131T418 119Q458 119 499 123T581 133T662 142T741 147Q766 147 781 141T805 125T816 103T819 78Q819 59 815 40T801 6T774 -20T731 -33Q608 -45 507 -51T342 -68Z" />
<glyph unicode="M" glyph-name="M" horiz-adv-x="1421" d="M1053 545Q1041 545 1032 526Q994 452 952 392T866 290T781 226T702 203Q666 203 636 218T570 277T489 396T377 594Q366 614 355 623T334 633Q321 633 310 606T291 529T279 410T274 256Q274 206 279 156T285
53Q285 35 275 20T249 -7T210 -26T162 -33Q112 -33 90 27T68 219Q68 386 86 522T139 756T221 907T328 961Q380 961 427 902T530 709Q552 655 577 608T628 527T678 473T721 453Q740 453 757 461T797 498T850 582T926 729Q950 777 969 809T1007 860T1047 888T1094
897Q1125 897 1155 864T1213 776T1269 648T1321 495T1371 333T1419 176Q1425 154 1427 146T1430 125Q1430 108 1420 92T1392 62T1354 41T1311 33Q1283 33 1268 39T1243 63Q1238 72 1226 111T1198 203T1162 317T1123 427T1085 511T1053 545Z" />
<glyph unicode="N" glyph-name="N" horiz-adv-x="1337" d="M311 500Q311 458 315 413T324 323T334 233T338 143Q338 94 304 64T213 33Q185 33 161 50T133 104Q128 151 124 209T116 330T109 456T104 578T101 686T100 770Q100 800 104 827T121 874T156 906T217 918Q246
918 282 898T359 842T448 762T545 666T647 565T754 467Q778 446 808 418T871 365T936 323T999 305Q1027 305 1035 329T1044 408Q1044 448 1038 507T1019 633T989 767T948 891Q943 903 939 914T934 940Q934 963 949 981T985 1011T1029 1029T1067 1036Q1100 1036
1126 1001T1171 909T1204 782T1225 640T1237 505T1241 397Q1241 316 1235 255T1208 151T1148 88T1044 66Q992 66 935 87T820 145T702 229T585 327T475 429T375 524Q356 543 340 543Q326 543 319 532T311 500Z" />
<glyph unicode="O" glyph-name="O" horiz-adv-x="1233" d="M555 -125Q446 -125 355 -88T197 15T94 174T57 377Q57 437 67 492T96 596Q104 615 104 623Q104 633 99 642T88 661T77 682T72 707Q72 749 120 789T247 861T426 912T631 932Q760 932 863 899T1039 805T1151
655T1190 457Q1190 334 1141 228T1007 43T805 -80T555 -125ZM989 418Q989 496 962 558T884 662T759 727T590 750Q425 750 342 667T258 418Q258 338 283 272T353 158T460 84T598 57Q684 57 756 83T879 158T960 272T989 418Z" />
<glyph unicode="P" glyph-name="P" horiz-adv-x="1130" d="M334 -115Q334 -82 332 -29T325 88T316 224T305 367T294 504T283 625Q275 702 261 738T215 774Q185 774 176 757T165 715T163 661T155 606T119 564T39 547Q1 547 -26 578T-53 670Q-53 754 -4 822T136
939T353 1015T635 1042Q746 1042 840 1018T1002 950T1110 847T1149 717Q1149 638 1103 566T977 434T787 330T553 260Q518 254 518 217Q518 192 521 155T528 76T535 -5T539 -76Q539 -132 513 -156T436 -180Q388 -180 361 -164T334 -115ZM942 688Q942 722 913 753T835
808T722 846T586 860Q551 860 528 858T490 849T471 834T465 809Q465 799 468 763T476 678T486 578T498 483Q501 452 506 442T524 432Q558 432 602 443T692 474T783 519T863 573T920 631T942 688Z" />
<glyph unicode="Q" glyph-name="Q" horiz-adv-x="1376" d="M672 393Q666 412 666 428Q666 475 717 500Q738 510 752 516T775 526T791 531T803 532Q826 532 843 510T873 453T897 379T919 305T944 248T977 225Q998 225 1018 244T1056 294T1083 359T1094 426Q1094
528 1055 608T954 745T814 830T657 860Q564 860 504 838T410 775T362 673T348 537Q348 479 370 424T434 321T537 238T676 184Q681 182 684 182T692 182Q708 182 717 192T727 217Q727 222 726 226T723 238L672 393ZM141 530Q141 541 142 557T143 590Q143 606 141
622T134 651T118 674T92 686Q74 688 63 700T51 731Q51 758 70 784Q116 854 181 903T325 984T489 1029T662 1044Q732 1044 806 1028T950 978T1084 897T1194 786T1268 645T1296 475Q1296 398 1278 334T1228 218T1149 126T1047 57Q1014 43 1014 12Q1014 9 1014 6T1015
-1Q1015 -5 1016 -8Q1021 -35 1029 -74T1046 -156T1061 -238T1067 -305Q1067 -367 997 -383Q976 -388 957 -390T932 -393Q871 -393 862 -322Q853 -253 840 -187T811 -55Q805 -32 795 -22T770 -12H741Q608 -12 498 31T309 149T185 322T141 530Z" />
<glyph unicode="R" glyph-name="R" horiz-adv-x="1073" d="M367 758Q347 750 328 750Q280 750 262 807Q257 822 256 832T254 850Q254 897 307 920Q412 962 521 988T741 1014Q793 1014 843 1003T934 965T999 893T1024 780Q1024 732 1005 688T953 604T880 528T796
462T711 408T635 365Q606 348 606 330Q606 309 637 297Q744 259 856 226T1083 152Q1137 132 1137 90Q1137 70 1126 50T1100 12Q1071 -31 1028 -31Q1013 -31 991 -25Q926 0 852 27T700 80T547 131T408 176Q385 182 377 182Q369 182 365 179T360 164Q360 161 361
157T362 147Q365 132 369 108T378 57T386 8T389 -31Q389 -87 328 -109L283 -123Q273 -126 265 -127T248 -129Q193 -129 184 -61Q160 121 123 298T37 651Q34 661 34 668T33 682Q33 735 90 754Q111 761 124 765T146 771T159 775T168 776Q222 776 238 715Q259 637
277 564T311 420Q319 385 340 385Q346 385 354 387T373 395Q405 412 450 437T545 492T643 557T730 625T793 692T817 754Q817 772 812 787T791 813T751 830T686 836Q648 836 607 830T524 812T443 787T367 758Z" />
<glyph unicode="S" glyph-name="S" horiz-adv-x="950" d="M283 410Q283 350 312 299T390 209T500 149T627 127Q647 127 668 130T706 143T734 166T745 203Q745 245 716 286T638 367T528 448T402 529T276 609T166 690T89 772T59 856Q59 896 79 930T134 993T213 1043T307
1080T405 1102T500 1110Q533 1110 572 1109T646 1100T704 1077T727 1034Q727 1025 724 1012T707 967Q693 938 675 924T627 909Q586 909 541 918T449 928Q424 928 399 926T352 917T318 898T305 866Q305 847 332 823T405 770T509 707T627 633T746 549T849 455T922
350T950 236Q950 164 917 109T832 17T717 -38T594 -57Q533 -57 471 -43T350 -2T242 62T154 146T96 247T74 360Q74 385 77 410T90 455T115 487T156 500Q164 500 174 499T209 489Q238 480 260 461T283 410Z" />
<glyph unicode="T" glyph-name="T" horiz-adv-x="788" d="M258 831Q250 831 228 828T175 819T112 808T50 796T0 788T-29 784Q-96 784 -96 854Q-96 873 -93 891T-80 925T-56 952T-18 967Q99 985 215 1005T449 1047Q475 1052 496 1056T543 1069Q571 1077 604 1084T670
1098T735 1108T793 1112Q825 1112 841 1092T858 1034Q858 1015 855 998T844 966T822 943T786 932Q729 924 664 913T551 887Q531 881 521 868T508 834Q505 815 505 796T504 758Q504 716 507 674T514 590Q523 446 541 305T582 20Q584 15 584 10T584 0Q584 -55 522
-78L477 -92Q459 -98 442 -98Q416 -98 400 -82T379 -33Q351 139 330 309T303 653Q301 681 300 714T299 782Q299 831 258 831Z" />
<glyph unicode="U" glyph-name="U" horiz-adv-x="1182" d="M94 823Q100 858 128 875T221 893Q256 893 275 875T295 825Q295 820 294 816T293 807Q282 742 275 672T268 530Q268 437 284 355T343 211T459 114T647 78Q711 78 760 101T841 164T890 260T907 379Q907
443 894 505T858 627T806 747T743 866Q729 893 729 915Q729 954 770 981L811 1008Q838 1026 862 1026Q899 1026 924 981Q962 914 997 846T1058 705T1100 557T1116 399Q1116 286 1079 193T972 34T807 -69T592 -106Q464 -106 365 -62T197 61T94 247T59 481Q59 569
69 657T94 823Z" />
<glyph unicode="V" glyph-name="V" horiz-adv-x="1139" d="M195 383Q147 451 105 511T30 624T-20 721T-39 801Q-39 819 -24 840T13 880T56 911T94 924Q130 924 156 879Q167 858 189 818T242 726T308 616T383 499T460 388T534 293T600 228T653 203Q682 203 706
243T750 348T787 495T815 663T837 827T852 967Q855 999 870 1015T909 1032Q930 1032 955 1023T1002 999T1038 963T1053 918Q1053 881 1047 831T1031 726T1009 613T985 504Q977 468 964 415T930 302T883 183T821 76T743 -1T645 -31Q606 -31 564 -10T480 47T397 126T319
217T250 306T195 383Z" />
<glyph unicode="W" glyph-name="W" horiz-adv-x="1741" d="M33 887Q33 951 102 965L145 973Q152 975 157 975T168 975Q229 975 240 905Q244 871 250 819T265 705T287 575T316 442T352 317T397 213T451 142T516 115Q541 115 566 130T617 169T665 225T707 288T741
349T766 401Q772 420 772 436Q772 444 771 452T768 469Q749 531 739 593T729 727Q729 769 736 810T760 885Q769 903 787 916T826 937T871 948T915 952Q937 952 955 944T987 915Q1015 877 1026 828T1038 729Q1038 675 1028 619T1004 506Q997 492 997 475Q997 467
999 458T1006 438Q1024 391 1048 343T1105 255T1177 191T1268 166Q1313 166 1349 204T1409 300T1447 426T1460 557Q1460 623 1455 687T1442 805Q1440 810 1440 815T1440 825Q1440 882 1501 903L1546 918Q1565 924 1581 924Q1634 924 1645 858Q1656 796 1662 734T1669
610Q1669 478 1638 362T1552 160T1420 23T1253 -27Q1164 -27 1074 26T911 197Q897 223 879 223Q862 223 848 197Q813 135 771 83T682 -8T584 -67T481 -88Q397 -88 334 -43T224 79T145 253T92 458T57 672T33 872V887Z" />
<glyph unicode="X" glyph-name="X" horiz-adv-x="1085" d="M389 20Q367 -33 322 -33Q304 -33 281 -23L254 -10Q205 14 205 57Q205 79 213 98Q244 171 280 249T356 410Q359 418 362 425T365 438Q365 462 340 481Q256 544 174 607T6 733Q-31 759 -31 793Q-31 807
-26 820T-8 848L20 881Q49 915 84 915Q96 915 108 910T135 895Q209 841 281 788T426 678Q435 672 443 668T459 664Q481 664 498 692Q546 785 597 876T702 1055Q729 1096 766 1096Q787 1096 815 1079L831 1069Q872 1042 872 1006Q872 993 868 981T856 954Q797 860
744 764T641 569Q638 561 636 555T633 543Q633 518 657 500Q773 410 887 320T1116 141Q1151 114 1151 82Q1151 52 1120 25L1085 -6Q1056 -33 1026 -33Q999 -33 971 -10L575 299Q566 305 559 309T543 313Q519 313 504 283L389 20V20Z" />
<glyph unicode="Y" glyph-name="Y" horiz-adv-x="950" d="M-123 856Q-158 882 -158 918Q-158 932 -153 945T-135 973L-106 1006Q-80 1038 -45 1038Q-33 1038 -20 1034T8 1018Q148 913 277 801T528 555Q547 537 561 537Q588 537 594 573L682 924Q697 983 743 983Q753
983 764 980T788 969L823 950Q872 923 872 877Q872 862 866 844Q832 719 798 581T727 297T653 2T575 -293Q559 -354 506 -354Q491 -354 473 -348L440 -338Q409 -330 395 -312T381 -268Q381 -262 381 -254T385 -238Q417 -119 448 -2T508 233Q510 240 511 245T512
256Q512 268 507 279T492 301Q351 457 198 594T-123 856Z" />
<glyph unicode="Z" glyph-name="Z" horiz-adv-x="1325" d="M137 487Q102 487 82 503T61 551Q61 557 62 563T66 578L72 600Q87 669 160 672Q234 674 307 675T453 676Q487 676 519 676T584 674Q621 674 647 700L705 762Q720 777 726 792T733 821Q733 840 720 853T680
868Q510 868 393 866T213 864Q137 864 137 928Q137 934 138 941T141 956L147 977Q163 1049 238 1049Q315 1051 392 1053T547 1055Q622 1055 681 1054T787 1046T873 1029T946 999Q971 985 983 973T1004 946Q1009 937 1012 928T1016 905Q1016 886 1008 866Q999 841
982 815T943 765T899 717T858 674Q856 672 856 668Q856 658 872 653T915 645Q988 639 1059 632T1202 614Q1233 611 1250 596T1268 555Q1268 536 1257 514Q1254 508 1252 502T1247 489Q1219 430 1163 430Q1160 430 1156 431T1147 432Q1091 440 1024 446T892 458T774
466T692 469Q661 469 637 444Q596 400 563 361T494 272Q484 258 479 246T473 221Q473 200 489 185T535 166Q621 155 712 154T901 152Q929 152 958 153T1016 156Q1094 162 1094 207Q1094 227 1110 239T1159 252Q1181 252 1215 245T1280 222T1333 185T1356 135Q1356
113 1343 92T1309 54T1263 24T1214 6Q1128 -12 1014 -22T780 -33Q687 -33 602 -28T451 -12Q415 -7 378 0T310 23T255 63T225 129Q225 134 224 137T223 145Q223 176 239 213T280 289T334 363T391 430Q408 450 408 465Q408 477 396 484T362 492L137 487V487Z" />
<glyph unicode="[" glyph-name="bracketleft" horiz-adv-x="688" d="M682 -84Q750 -84 750 -139Q750 -168 743 -190T725 -228T701 -253T674 -266Q589 -280 514 -289T367 -299Q322 -299 286 -280T238 -213Q206 -52 191 112T172 444Q169 550 167 654T164 866Q164
990 170 1072T197 1205T262 1276T379 1300Q450 1300 523 1302T682 1305Q750 1305 750 1251Q750 1196 724 1159T657 1120L449 1116Q377 1116 377 1044Q377 1005 377 964T376 871T376 749T375 584Q375 537 376 464T380 305T388 127T403 -49Q422 -104 477 -104Q528
-104 579 -94T682 -84Z" />
<glyph unicode="\" glyph-name="backslash" horiz-adv-x="602" d="M274 1112Q294 988 316 862T366 591T428 277T508 -102Q510 -107 510 -111T510 -119Q510 -139 499 -150T465 -164L375 -174Q350 -174 335 -166T313 -131Q241 178 184 487T74 1108Q74 1137 84 1150T123
1165L217 1161Q265 1158 274 1112Z" />
<glyph unicode="]" glyph-name="bracketright" horiz-adv-x="688" d="M6 1090Q-61 1090 -61 1145Q-61 1173 -54 1195T-36 1234T-12 1259T14 1272Q99 1286 174 1295T322 1305Q366 1305 402 1286T451 1219Q483 1058 498 894T516 561Q519 456 521 352T524 139Q524
16 518 -67T491 -200T426 -272T309 -295Q238 -295 165 -297T6 -299Q-61 -299 -61 -246Q-61 -190 -36 -154T31 -115L240 -111Q311 -111 311 -39Q311 0 311 41T312 135T312 257T313 422Q313 469 312 542T308 700T300 878T285 1055Q266 1110 211 1110Q160 1110 109
1100T6 1090Z" />
<glyph unicode="^" glyph-name="asciicircum" horiz-adv-x="915" d="M897 508Q915 490 915 469Q915 449 901 432L860 377Q842 354 821 354Q803 354 784 373Q752 404 714 440T635 511T550 577T465 629Q457 634 450 635T436 637Q417 637 396 618T354 567T313 497T275
417T243 340T219 276Q207 242 180 242Q170 242 147 252T101 279T59 314T41 350Q41 362 50 390T75 456T113 538T160 627T215 712T273 784T332 835T389 854Q424 854 466 838T552 794T643 731T735 657T821 580T897 508Z" />
<glyph unicode="_" glyph-name="underscore" horiz-adv-x="1051" d="M0 -666Q-47 -666 -47 -625Q-47 -622 -47 -618T-45 -608L-25 -526Q-15 -481 31 -481H1081Q1128 -481 1128 -522Q1128 -525 1128 -529T1126 -539L1106 -621Q1097 -666 1051 -666H0V-666Z" />
<glyph unicode="`" glyph-name="grave" horiz-adv-x="868" d="M193 1245Q193 1257 204 1273T233 1304T271 1329T309 1339Q347 1339 389 1317T472 1260T549 1180T613 1091T657 1006T674 938Q674 926 666 916T644 898T614 886T580 881Q561 881 547 886T524 905Q487
967 449 1012T373 1090T304 1145T247 1185T208 1216T193 1245Z" />
<glyph unicode="a" glyph-name="a" horiz-adv-x="1137" d="M711 874Q766 874 817 857T907 810T969 738T993 645Q993 624 984 605T958 571T922 548T879 539Q877 539 876 539T872 538Q870 537 868 537L872 457Q876 314 912 248T1008 182Q1029 182 1045 186T1076
195T1104 205T1130 209Q1153 209 1170 189T1188 141Q1188 113 1167 85T1110 35T1031 -2T942 -16Q864 -16 805 48T721 238Q715 258 705 258Q693 258 684 246Q585 121 473 59T252 -4Q201 -4 160 11T91 53T47 120T31 209Q31 278 61 354T144 504T264 645T408 763T562
844T711 874ZM678 528Q696 562 711 577T754 598Q776 601 776 612Q776 620 770 629Q751 655 730 674T674 694Q636 694 589 672T494 614T399 531T316 435T258 338T236 252Q236 218 254 199T305 180Q387 180 484 267T678 528Z" />
<glyph unicode="b" glyph-name="b" horiz-adv-x="1081" d="M123 231Q104 465 80 696T8 1157Q6 1165 6 1171T6 1184Q6 1207 15 1224T41 1252T77 1270T121 1276Q182 1276 205 1219Q215 1190 225 1136T247 1011T270 856T291 682Q294 657 307 657Q318 657 330 672Q476
864 676 864Q751 864 816 831T929 741T1004 606T1032 438Q1032 354 1006 282T932 158T821 77T680 47Q586 47 496 83T326 182Q317 190 307 190Q294 190 283 176Q267 158 249 153T205 147Q126 147 123 231ZM641 678Q601 678 562 660T487 607T423 526T373 420Q371
417 370 411T369 401Q369 384 381 375Q417 344 455 317T532 270T607 239T676 227Q748 227 785 269T823 391Q823 453 809 505T771 596T714 656T641 678Z" />
<glyph unicode="c" glyph-name="c" horiz-adv-x="696" d="M436 825Q488 825 537 810T623 770T684 712T707 645Q707 623 698 603T674 567T640 542T600 532Q577 532 558 549T518 588T470 627T406 645Q370 645 341 628T293 581T263 509T252 418Q252 278 305 205T457
131Q504 131 537 146T596 179T643 212T686 227Q698 227 710 220T731 201T747 175T754 147Q754 114 722 79T638 16T525 -31T403 -49Q324 -49 258 -19T144 66T70 197T43 365Q43 465 72 549T154 694T279 790T436 825Z" />
<glyph unicode="d" glyph-name="d" horiz-adv-x="1200" d="M752 731Q756 729 764 729Q786 729 786 758V1069Q786 1128 812 1153T901 1178Q964 1178 990 1152T1016 1063Q1016 1039 1013 993T1007 887T1000 761T997 627Q997 525 1011 451T1051 329T1113 257T1194
233Q1219 233 1239 239T1288 246Q1308 246 1321 226T1335 176Q1335 150 1320 127T1278 87T1216 61T1143 51Q1061 51 993 101T891 256Q888 272 881 272Q873 272 868 256Q841 183 798 125T697 25T571 -39T426 -61Q346 -61 280 -35T165 39T90 151T63 291Q63 387 103
472T211 620T371 721T565 758Q607 758 654 752T752 731ZM465 119Q522 119 566 144T645 207T704 292T743 383T765 462T772 512Q772 523 766 531T748 545Q721 552 692 557T635 567T582 573T535 575Q475 575 426 557T343 506T289 428T270 328Q270 280 284 242T324
176T386 134T465 119Z" />
<glyph unicode="e" glyph-name="e" horiz-adv-x="1057" d="M934 219Q963 244 991 244Q1007 244 1020 236T1049 211Q1064 188 1070 174T1077 145Q1077 115 1047 88Q999 48 943 17T826 -37T700 -70T571 -82Q490 -82 419 -62T293 -3T199 88T145 209Q136 237 129 245T104
254Q67 254 47 272T27 324Q27 338 29 342L31 362Q36 398 50 414T96 430H111Q153 430 170 469Q201 538 249 595T357 692T485 755T625 778Q699 778 763 757T876 697T951 608T979 498Q979 457 963 423T917 364T845 322T748 301L401 266Q381 266 369 256T356 229Q356
203 375 179T427 137T502 107T590 96Q633 96 678 104T768 129T855 167T934 219ZM711 477Q726 480 737 491T748 520Q748 535 737 548T707 571T663 588T610 594Q569 594 526 582T448 551T391 508T369 461Q369 438 397 438Q414 438 452 442T536 451T629 464T711 477Z"
/>
<glyph unicode="f" glyph-name="f" horiz-adv-x="627" d="M-2 551Q-25 553 -39 581T-53 643Q-53 659 -51 674T-42 702T-27 721T-6 729Q31 729 79 731T182 737Q210 740 213 770Q222 915 238 1020T277 1197T329 1315T395 1384Q406 1392 421 1400T449 1409Q474 1409
501 1397T552 1365T591 1321T606 1272Q606 1263 602 1258T592 1247Q553 1218 523 1182T472 1094T437 969T416 793Q416 777 421 770T442 762Q481 762 520 768T596 780T664 793T721 799Q739 799 747 778T756 725Q756 707 753 688T744 654T727 629T702 616L436 588Q415
585 411 571T406 532Q406 311 417 152T441 -115T466 -286T477 -377Q477 -398 461 -415T419 -444T363 -462T307 -469Q282 -469 263 -461T240 -432Q230 -362 223 -279T212 -94T205 128T203 393Q203 430 203 465T205 535Q205 565 172 565L-2 551V551Z" />
<glyph unicode="g" glyph-name="g" horiz-adv-x="1165" d="M612 780Q660 780 703 773T781 757T841 741T877 733Q886 733 894 742T914 763T946 783T999 793Q1037 793 1059 774T1081 725Q1081 359 1056 104T975 -312T830 -544T614 -616Q556 -616 494 -590T379 -524T294
-434T260 -340Q260 -325 276 -305T315 -266T363 -234T406 -221Q425 -221 438 -236T462 -275T486 -325T516 -376T560 -414T625 -430Q843 -430 881 236Q881 266 864 266Q850 266 842 252Q748 125 623 62T344 -2Q273 -2 213 19T110 79T42 171T18 289Q18 352 40 413T103
529T200 630T322 709T461 761T612 780ZM375 182Q512 182 626 268T821 520Q823 526 824 529T825 537Q825 547 804 558T749 577T672 590T584 596Q513 596 447 572T330 508T248 417T217 311Q217 252 260 217T375 182Z" />
<glyph unicode="h" glyph-name="h" horiz-adv-x="1100" d="M55 963Q55 1071 195 1071Q219 1071 237 1058T258 1022Q267 961 274 901T287 767T300 595T315 362Q315 348 319 342T330 336Q339 336 348 354Q382 429 424 488T514 589T615 652T725 674Q799 674 859 632T961
513T1026 327T1049 82Q1049 45 1044 22T1025 -16T989 -35T932 -41Q885 -41 865 -23T844 33Q844 127 832 210T797 357T746 457T682 494Q605 494 529 369T369 -8Q361 -31 351 -46T328 -70T295 -82T250 -86Q197 -86 175 -66T150 0Q144 174 129 332T97 619T68 837T55
963Z" />
<glyph unicode="i" glyph-name="i" horiz-adv-x="444" d="M233 1020Q204 1020 179 1028T135 1052T105 1089T94 1135Q94 1177 127 1203T217 1229Q243 1229 267 1220T309 1194T339 1157T350 1112Q350 1069 319 1045T233 1020ZM96 715Q96 750 126 772T207 795Q297
795 303 733Q307 690 311 636T320 522T328 397T335 270T340 149T342 43Q342 -7 307 -32T203 -57Q172 -57 155 -43T137 0Q137 138 131 258T117 473T103 629T96 715Z" />
<glyph unicode="j" glyph-name="j" horiz-adv-x="596" d="M162 -342Q188 -342 205 -335T232 -307T246 -253T250 -166Q250 39 236 187T204 437T173 600T158 694Q158 728 189 749T274 772Q351 772 367 727Q388 656 405 564T435 364T454 141T461 -94Q461 -219 447
-304T398 -442T307 -516T168 -539Q119 -539 66 -527T-39 -494T-135 -445T-215 -387T-270 -324T-291 -262Q-291 -247 -279 -228T-250 -193T-212 -165T-176 -154Q-157 -154 -137 -168T-93 -203T-43 -248T15 -293T83 -328T162 -342ZM293 938Q264 939 240 948T197 972T169
1008T158 1053Q158 1095 190 1121T276 1147Q303 1147 327 1138T371 1112T401 1074T412 1028Q412 985 381 962T293 938Z" />
<glyph unicode="k" glyph-name="k" horiz-adv-x="913" d="M143 20Q143 107 138 209T126 415T110 620T94 803T81 946T76 1030Q76 1070 106 1091T193 1112Q218 1112 235 1107T264 1090T281 1059T291 1010Q295 970 298 925T304 821T312 690T322 522Q322 508 327 502T338
496Q349 496 358 514Q443 687 536 778T717 870Q769 870 799 839T829 756Q829 700 805 653T744 563T665 484T586 412T525 344T500 276Q500 245 536 213T642 149T811 88T1038 31Q1058 26 1066 15T1075 -14Q1075 -36 1065 -59T1040 -102T1007 -134T971 -147Q937 -147
890 -138T789 -114T676 -78T564 -34T461 15T377 66Q366 72 360 76T348 80Q342 80 341 76T340 57Q340 22 335 0T316 -34T280 -52T223 -57Q178 -57 161 -40T143 20Z" />
<glyph unicode="l" glyph-name="l" horiz-adv-x="451" d="M29 1139Q29 1191 59 1213T158 1235Q182 1235 200 1230T230 1214T249 1183T262 1133Q275 1044 288 947T314 753T338 565T357 395T370 256T375 160Q375 124 369 99T347 59T307 38T246 31Q211 31 191 49T170
104Q170 142 164 205T148 347T126 513T100 687T74 852T51 993T35 1094T29 1139Z" />
<glyph unicode="m" glyph-name="m" horiz-adv-x="1454" d="M172 -43Q165 90 150 202T118 399T89 535T76 600Q76 619 90 637T127 668T174 690T221 698Q238 698 250 692T268 672Q273 655 277 637T287 592Q293 555 303 555Q314 555 328 588Q348 634 371 664T420 711T475
736T535 743Q629 743 694 669T797 455Q802 439 806 435T815 430Q820 430 825 434T836 453Q860 518 892 563T958 637T1029 679T1098 692Q1159 692 1208 648T1296 511T1363 277T1411 -59Q1411 -113 1378 -134T1288 -156Q1251 -156 1230 -140T1206 -98Q1193 41 1178
149T1144 332T1105 446T1057 485Q1044 485 1025 466T983 397T937 259T891 35Q885 -3 855 -23T780 -43Q729 -43 710 -27T688 27Q684 93 675 158T651 283T620 393T584 481T545 540T506 561Q481 561 458 526T416 427T386 273T375 72Q375 53 376 35T377 -4Q377 -34
368 -53T341 -83T300 -98T250 -102Q225 -102 210 -99T187 -88T176 -70T172 -43Z" />
<glyph unicode="n" glyph-name="n" horiz-adv-x="973" d="M100 807Q100 822 113 836T147 862T194 881T248 889Q263 889 273 881T292 851T306 788T319 682Q323 662 326 652T336 641Q345 641 354 672Q427 883 565 883Q629 883 681 843T779 713T866 475T948 111Q950
100 951 91T952 74Q952 51 942 35T914 8T876 -8T834 -14Q792 -14 774 -5T750 29Q721 181 694 299T640 497T587 620T535 662Q509 662 487 630T443 528T403 353T365 100Q360 60 325 36T236 12Q200 12 181 27T160 68Q151 276 141 410T121 626T106 748T100 807Z" />
<glyph unicode="o" glyph-name="o" horiz-adv-x="1063" d="M96 332Q96 349 100 370T104 416Q104 433 90 442T57 462T25 490T10 539Q10 562 22 585T59 627Q118 671 181 706T308 765T434 802T553 815Q649 815 733 780T880 683T979 539T1016 362Q1016 270 978 188T874
43T722 -55T537 -92Q442 -92 361 -60T221 28T129 162T96 332ZM559 88Q601 88 646 105T728 154T790 234T815 340Q815 400 793 452T733 542T642 603T528 625Q417 625 358 568T299 391Q299 326 318 271T373 175T455 111T559 88Z" />
<glyph unicode="p" glyph-name="p" horiz-adv-x="1008" d="M-14 698Q-14 737 21 757T121 778Q136 778 148 774T169 759T187 727T203 676Q211 641 219 641Q226 641 236 670Q254 727 283 769T350 840T430 883T522 897Q619 897 703 861T848 760T944 608T979 418Q979
310 942 218T837 60T678 -44T475 -82L424 -80Q379 -80 379 -131L430 -590Q429 -607 419 -621T391 -647T350 -664T301 -670Q229 -670 223 -623Q202 -441 177 -277T125 28T73 286T29 488T-2 628T-14 698ZM311 434Q311 369 316 306T332 168Q338 123 381 117Q407 111
439 106T494 100Q558 100 610 119T699 173T756 258T776 367Q776 440 756 503T702 614T621 688T520 715Q473 715 435 695T369 638T326 549T311 434Z" />
<glyph unicode="q" glyph-name="q" horiz-adv-x="1225" d="M938 -168Q932 -127 901 -127Q890 -127 874 -133Q843 -147 802 -165T723 -199T657 -227T623 -238Q608 -238 595 -229T573 -204T557 -170T551 -133Q551 -113 559 -96T586 -70Q654 -36 723 -6T864 53Q901
68 901 109L887 256Q881 295 858 295Q842 295 823 270Q730 150 625 95T395 39Q321 39 259 60T151 118T81 206T55 319Q55 387 83 449T159 564T270 660T404 735T548 782T690 799Q762 799 811 791T893 774Q907 791 921 799T950 807Q969 807 990 801T1030 783T1061
758T1073 729Q1073 718 1069 708T1061 689T1053 668T1049 645Q1049 621 1053 572T1065 461T1081 329T1098 197Q1104 154 1139 154Q1142 154 1147 155T1157 158Q1196 169 1238 180T1316 201T1379 215T1413 221Q1445 221 1461 198T1477 135Q1477 104 1466 77T1434
45Q1365 30 1300 13T1169 -25Q1130 -37 1130 -76L1182 -498Q1182 -520 1169 -539T1134 -572T1087 -594T1036 -602Q1013 -602 998 -590T981 -557Q972 -460 961 -364T938 -168ZM438 225Q488 225 535 239T628 290T718 387T805 543Q808 551 810 558T813 571Q813 604
774 610Q741 616 698 616Q616 616 537 594T396 536T296 454T258 360Q258 294 304 260T438 225Z" />
<glyph unicode="r" glyph-name="r" horiz-adv-x="725" d="M625 748Q588 748 560 729T512 675T479 594T458 492T447 377T444 256Q444 176 450 99T457 -45Q457 -88 425 -112T334 -137Q323 -137 309 -135T283 -127T261 -111T250 -82Q241 6 224 98T182 281T121 463T39
639Q31 654 26 667T20 692Q20 707 33 724T67 757T112 781T160 791Q198 791 227 739T281 571Q286 551 289 543T297 535Q308 535 311 569Q323 664 352 732T424 845T524 911T649 932Q688 932 728 925T800 904T852 870T872 825Q872 807 865 783T845 736T818 698T786
682Q768 682 751 692T715 715T674 737T625 748Z" />
<glyph unicode="s" glyph-name="s" horiz-adv-x="754" d="M332 868Q399 868 470 851T600 806T697 744T735 678Q735 662 721 643T687 606T644 577T602 565Q578 565 549 585T484 629T406 674T315 694Q283 694 263 679T242 635Q242 610 266 585T329 532T419 475T521
411T624 337T713 250T777 148T801 27Q801 -29 781 -75T724 -154T636 -205T524 -223Q447 -223 382 -200T270 -135T197 -37T170 88Q170 176 201 216T301 256Q343 256 368 240T393 201Q393 189 389 177T381 151T373 122T369 92Q369 66 381 42T413 0T461 -30T518 -41Q598
-41 598 25Q598 77 557 123T454 214T321 304T187 398T84 502T43 623Q43 677 65 722T127 799T218 850T332 868Z" />
<glyph unicode="t" glyph-name="t" horiz-adv-x="836" d="M176 1155Q176 1208 206 1229T305 1251Q330 1251 347 1247T377 1230T397 1199T410 1149Q422 1056 436 957T467 758Q473 713 514 713Q525 713 550 715T611 721T686 729T767 736T844 742T909 745Q931 745
944 737T964 715T974 685T977 651Q977 636 972 620T957 592T933 571T901 563Q814 563 726 558T549 543Q504 537 504 498Q504 495 505 491T506 483Q518 396 528 320T546 185T558 86T563 33Q563 -3 556 -27T533 -67T491 -89T424 -96Q386 -96 368 -78T348 -23Q342
95 329 214T299 453Q290 496 254 496Q251 496 247 495T240 494Q178 480 123 466T20 436Q-7 427 -28 424T-66 420Q-89 420 -100 440T-111 492Q-111 503 -109 517T-102 546T-86 573T-57 594Q-15 611 55 629T213 664Q233 669 244 680T256 715Q256 720 256 725T254
737Q238 829 224 904T199 1034T182 1119T176 1155Z" />
<glyph unicode="u" glyph-name="u" horiz-adv-x="961" d="M293 354Q293 220 334 147T453 74Q502 74 543 103T615 184T661 307T678 463Q678 514 674 551T666 618T657 671T653 715Q653 747 680 761T766 776Q841 776 882 742T924 643Q924 466 890 325T791 86T634
-66T428 -119Q347 -119 279 -86T161 8T83 152T55 336Q55 374 57 417T63 509T73 617T88 743Q91 772 115 789T178 807Q212 807 242 800T293 781T327 753T340 719Q340 701 333 663T317 575T301 468T293 354Z" />
<glyph unicode="v" glyph-name="v" horiz-adv-x="903" d="M618 772Q621 800 625 818T639 848T664 865T702 870Q775 870 809 849T844 780Q844 771 841 741T831 666T818 568T803 459Q785 331 762 172Q748 78 707 37T584 -4Q523 -4 458 27T332 111T217 234T121 384T57
547T33 709Q33 798 58 842T147 887Q191 887 220 882T266 863T291 827T299 772Q299 750 297 728T295 684Q295 633 305 578T334 469T376 369T427 285T481 228T535 207Q553 207 562 219T575 260L618 772Z" />
<glyph unicode="w" glyph-name="w" horiz-adv-x="1587" d="M719 428Q719 586 757 671T866 756Q979 756 979 561Q979 492 972 431T950 313Q948 305 947 298T946 285Q946 264 954 248Q1004 121 1139 121Q1187 121 1229 142T1302 199T1350 285T1368 391Q1368 455
1353 497T1320 570T1287 626T1272 684Q1272 699 1285 715T1319 746T1364 769T1411 778Q1440 778 1468 746T1519 663T1555 545T1569 412Q1569 315 1533 229T1435 78T1291 -25T1116 -63Q1038 -63 978 -36T866 61Q858 74 850 79T834 84Q824 84 816 79T799 61Q731 -28
654 -66T483 -104Q380 -104 298 -48T157 113T68 365T37 698Q37 773 43 822T65 900T107 940T174 952Q217 952 236 936T256 879Q256 848 250 810T244 743Q244 598 264 476T321 266T408 129T520 80Q656 80 721 219Q727 230 729 239T731 260Q731 266 731 272T729 287Q724
325 722 359T719 428Z" />
<glyph unicode="x" glyph-name="x" horiz-adv-x="1077" d="M111 844Q98 865 94 879T90 903Q90 920 105 938T142 970T189 994T233 1004Q244 1004 256 996T291 952Q326 895 364 834T446 711Q463 688 481 688Q501 688 518 709Q586 784 655 848T793 952Q835 977 862
985T901 993Q920 993 940 981T976 952T1003 915T1014 881Q1014 858 986 836T903 782Q828 736 761 674T631 543Q621 533 618 524T614 506Q614 498 617 489T629 471Q666 428 703 392T774 331T841 291T903 276Q926 276 952 282T999 289Q1028 289 1039 272T1051 225Q1051
192 1039 166T1007 123T958 96T899 86Q851 86 801 103T701 150T602 220T506 309Q488 328 469 328Q449 328 432 307Q385 249 342 198T258 109T180 49T106 27Q80 27 61 37T28 63T9 94T2 121Q2 135 12 147T41 175T85 213T143 268Q178 303 220 354T311 465Q316 471
319 478T322 494Q322 522 291 565Q229 650 183 724T111 844Z" />
<glyph unicode="y" glyph-name="y" horiz-adv-x="1008" d="M500 -27Q440 -27 380 2T265 83T163 203T81 353T26 522T6 698Q6 766 34 795T125 825Q204 825 213 760Q231 622 263 511T338 322T435 202T549 160Q592 160 630 181T696 242Q706 257 709 271T715 303Q720
374 726 442T739 580Q741 610 747 629T765 659T796 674T846 678Q880 678 904 669T943 638T964 582T971 496Q971 452 965 420T950 359T934 303T924 242Q919 159 915 99T909 -5T905 -79T902 -134T901 -181T901 -229Q901 -276 905 -331T913 -438T922 -528T926 -582Q926
-601 914 -618T882 -648T835 -668T778 -676Q752 -676 737 -659T719 -612Q716 -574 714 -520T710 -404T708 -279T706 -161T705 -65T705 -6Q705 12 701 19T686 27Q680 27 670 24T647 12Q612 -9 576 -18T500 -27Z" />
<glyph unicode="z" glyph-name="z" horiz-adv-x="903" d="M502 248Q468 248 437 243T378 233T330 222T297 217Q286 217 275 226T254 251T239 284T233 319Q233 334 254 361T307 422T376 495T445 573T498 648T520 715Q520 749 495 765T430 782Q375 782 321 769T219
740T135 711T76 698Q62 698 50 706T27 727T12 759T6 797Q6 832 17 858T49 893Q87 907 139 919T249 942T362 957T465 963Q589 963 654 914T719 770Q719 728 709 691T676 617T619 541T537 455Q518 436 518 424Q518 407 555 403Q652 398 726 369T852 290T929 172T956
18Q956 -87 918 -178T812 -337T653 -444T457 -483Q364 -483 283 -455T143 -377T49 -261T14 -117Q14 -81 22 -45T43 21T72 68T104 86Q129 86 152 81T194 66T224 44T236 20Q236 10 233 0T226 -23T219 -50T215 -80Q215 -125 235 -165T291 -236T373 -283T473 -301Q537
-301 589 -280T679 -219T737 -125T758 -4Q758 50 739 96T685 175T604 228T502 248Z" />
<glyph unicode="{" glyph-name="braceleft" horiz-adv-x="735" d="M631 -63Q662 -35 690 -35Q704 -35 718 -41T748 -63Q776 -93 776 -123Q776 -152 750 -178Q687 -238 615 -265T463 -293Q398 -293 352 -272T276 -215T233 -133T219 -37Q219 5 228 44T250 123T271
201T281 281Q281 315 269 336T239 372T199 396T160 417T129 442T117 481Q117 518 136 543T186 580Q242 598 266 624T291 688Q291 721 279 760T252 841T225 924T213 1001Q213 1073 244 1129T324 1225T436 1284T561 1305Q590 1305 626 1299T693 1281T746 1250T768
1206Q768 1192 759 1175T723 1130Q695 1100 681 1090T653 1079Q641 1079 627 1085T597 1100T561 1115T520 1122Q491 1122 472 1112T440 1087T423 1055T418 1022Q418 996 429 957T455 876T480 793T492 723Q492 669 469 626T401 549Q379 530 379 516Q379 499 403
483Q450 451 466 413T483 322Q483 281 474 242T454 165T433 87T424 8Q424 -26 431 -48T452 -84T483 -103T524 -109Q556 -109 582 -96T631 -63Z" />
<glyph unicode="|" glyph-name="bar" horiz-adv-x="512" d="M154 1276Q154 1316 192 1340T295 1364Q326 1364 342 1344T358 1288V-410Q358 -450 320 -474T217 -498Q186 -498 170 -478T154 -422V1276Z" />
<glyph unicode="}" glyph-name="braceright" horiz-adv-x="735" d="M104 1075Q89 1061 75 1054T45 1047Q16 1047 -12 1075Q-41 1104 -41 1135Q-41 1163 -14 1190Q49 1250 120 1277T272 1305Q337 1305 383 1284T459 1227T502 1145T516 1049Q516 1007 507 968T486
889T465 811T455 731Q455 697 467 676T497 640T536 616T576 594T606 569T618 530Q618 493 599 468T549 432Q493 414 469 388T444 324Q444 291 456 252T483 170T510 87T522 10Q522 -61 491 -117T411 -213T299 -272T174 -293Q145 -293 109 -287T42 -269T-11 -239T-33
-195Q-33 -181 -24 -164T12 -119Q40 -88 55 -78T82 -68Q94 -68 108 -74T139 -89T175 -104T215 -111Q244 -111 263 -101T295 -75T312 -43T317 -10Q317 16 306 55T281 136T256 219T244 289Q244 343 267 386T334 463Q356 482 356 496Q356 513 332 528Q285 560 269
599T252 690Q252 731 261 770T281 847T302 925T311 1004Q311 1038 304 1060T283 1095T252 1114T211 1120Q179 1120 153 1108T104 1075Z" />
<glyph unicode="~" glyph-name="asciitilde" horiz-adv-x="971" d="M776 606Q787 615 803 621T831 627Q846 627 861 615T889 586T910 550T918 516Q918 486 894 461T832 418T751 389T668 379Q621 379 568 394T464 429T367 463T291 479Q267 479 246 470T207 451T174
431T147 422Q135 422 119 437T88 472T63 512T53 545Q53 569 74 590T128 626T200 650T276 659Q326 659 377 643T475 608T565 573T641 557Q681 557 714 571T776 606Z" />
<glyph unicode="&#xa0;" glyph-name="nbspace" horiz-adv-x="485" />
<glyph unicode="&#xa1;" glyph-name="exclamdown" horiz-adv-x="520" d="M475 -483Q478 -497 480 -508T483 -530Q483 -558 466 -577T414 -596Q259 -596 244 -522Q209 -335 185 -141T160 262Q160 282 162 301T170 334T186 358T215 367L299 354Q325 351 335 339T348
303Q356 120 387 -79T475 -483ZM268 748Q297 748 322 739T367 715T397 678T408 633Q408 591 374 565T285 539Q259 539 235 548T193 574T163 611T152 655Q152 699 183 723T268 748Z" />
<glyph unicode="&#xa2;" glyph-name="cent" horiz-adv-x="696" d="M395 1069Q398 1130 459 1139L510 1143Q536 1143 549 1129T563 1090L548 806Q582 795 611 778T661 739T695 694T707 645Q707 623 698 603T674 567T640 542T600 532Q582 532 567 543T536 570L514
138Q545 147 569 162T613 191T650 216T686 227Q698 227 710 220T731 201T747 175T754 147Q754 121 733 94T678 41T598 -4T505 -36L492 -285Q488 -345 428 -354L375 -358Q349 -358 337 -341T324 -293L337 -43Q271 -31 217 3T125 91T65 213T43 365Q43 456 68 535T138
674T245 772T382 821L395 1069ZM252 418Q252 229 347 162L372 640Q343 633 321 614T284 565T260 499T252 418Z" />
<glyph unicode="&#xa3;" glyph-name="sterling" horiz-adv-x="909" d="M242 -51Q166 -51 166 12Q166 15 167 27T171 55T183 87T205 115Q219 126 231 134T251 152T265 173T270 203V291Q270 328 270 363T272 432Q272 463 240 463L66 449Q43 451 29 479T14 541Q14
557 17 572T25 600T40 619T61 627Q99 627 146 629T250 635Q278 638 281 668Q291 795 311 884T358 1033T417 1129T483 1188Q509 1205 532 1215T573 1225Q595 1225 620 1213T666 1181T701 1137T715 1087Q715 1071 700 1063Q652 1040 616 1011T553 939T509 836T483
690Q483 676 488 668T510 659Q529 659 565 665T643 677T724 690T788 696Q807 696 815 674T823 623Q823 605 820 587T811 552T795 526T770 514L504 485Q482 482 478 469T473 430Q473 364 473 306T475 193Q478 143 526 143L856 164Q894 164 913 147T932 86Q932 33
911 9T848 -18L242 -51Z" />
<glyph unicode="&#xa4;" glyph-name="currency" horiz-adv-x="922" d="M61 399Q61 488 104 563Q115 582 115 596Q115 617 96 635L18 715Q4 727 -2 740T-8 768Q-8 783 0 798T27 825L41 838Q69 860 96 860Q129 860 158 831L240 748Q260 727 283 727Q294 727 309
733Q375 756 449 756Q498 756 547 745Q552 743 557 743T567 743Q593 743 616 766L696 850Q710 864 724 871T752 879Q782 879 809 846L821 831Q846 805 846 774Q846 759 840 744T819 715L791 684Q783 675 779 667T774 649Q774 633 791 610Q860 529 860 424Q860 377
843 333T795 252Q778 230 778 213Q778 197 795 178L836 135Q860 108 860 82Q860 46 815 20L797 10Q773 -4 750 -4Q712 -4 682 33Q670 47 656 62T627 92Q604 113 584 113Q577 113 571 112T559 109Q489 92 418 92Q354 92 299 104Q293 106 287 107T274 109Q253 109
231 88L154 8Q127 -18 98 -18Q81 -18 65 -8T37 25L27 43Q10 71 10 94Q10 128 43 158L80 195Q98 216 98 233Q98 241 96 247T90 262Q76 291 69 326T61 399ZM682 399Q682 438 661 472T604 531T520 571T418 586Q381 586 349 575T294 543T258 495T244 436Q244 351 294
306T436 260Q487 260 531 271T609 300T662 344T682 399Z" />
<glyph unicode="&#xa5;" glyph-name="yen" horiz-adv-x="950" d="M197 207Q147 207 147 250Q147 253 147 257T150 266L168 346Q180 391 227 391Q272 391 315 392T404 395Q280 522 149 636T-123 856Q-158 882 -158 918Q-158 932 -153 945T-135 973L-106 1006Q-80
1038 -45 1038Q-33 1038 -20 1034T8 1018Q148 913 277 801T528 555Q547 537 561 537Q588 537 594 573L682 924Q697 983 743 983Q753 983 764 980T788 969L823 950Q872 923 872 877Q872 862 866 844Q839 744 812 637T755 414Q790 416 825 418T895 424H905Q927 422
936 412T948 379L944 295Q941 245 891 242Q845 238 800 235T710 229L676 92L846 104H856Q878 102 887 92T899 59L895 -25Q892 -75 842 -78L628 -92Q615 -143 602 -192T575 -293Q559 -354 506 -354Q491 -354 473 -348L440 -338Q409 -330 395 -312T381 -268Q381 -262
381 -254T385 -238L421 -103Q354 -106 292 -108T172 -111Q147 -111 135 -100T123 -68Q123 -64 123 -60T125 -51L143 29Q156 74 203 74Q272 75 338 76T470 81Q478 115 486 148T504 216Q349 208 197 207Z" />
<glyph unicode="&#xa6;" glyph-name="brokenbar" horiz-adv-x="512" d="M154 1276Q154 1316 192 1340T295 1364Q326 1364 342 1344T358 1288V737Q358 697 320 673T217 649Q186 649 170 669T154 725V1276ZM154 170Q154 210 192 234T295 258Q326 258 342 238T358
182V-410Q358 -450 320 -474T217 -498Q186 -498 170 -478T154 -422V170Z" />
<glyph unicode="&#xa7;" glyph-name="section" horiz-adv-x="1022" d="M293 20Q293 -37 320 -89T393 -181T498 -244T621 -268Q640 -268 661 -266T701 -256T731 -235T743 -199Q743 -155 715 -112T642 -25T538 62T418 147T298 232T194 317T120 400T92 483Q92 541
128 584T220 656T344 699T477 713Q483 713 487 715T492 721Q492 726 489 730T481 739L451 764Q415 792 370 827T285 902T218 986T190 1077Q190 1132 227 1173T321 1240T449 1279T584 1292Q595 1292 621 1291T680 1286T747 1275T811 1257T858 1230T877 1192Q877
1180 875 1169T864 1143L850 1118Q836 1093 816 1082T772 1071Q744 1071 715 1078T656 1094T595 1110T530 1118Q512 1118 496 1116T466 1107T444 1092T436 1067Q436 1048 460 1022T524 962T614 889T717 806T820 713T909 612T973 504T997 391Q997 344 984 307T947
242T892 193T825 160Q795 148 795 131Q795 119 813 100Q872 40 911 -26T950 -164Q950 -236 918 -290T834 -379T721 -433T600 -451Q538 -451 476 -436T357 -392T249 -325T162 -238T104 -136T82 -23Q82 3 85 30T98 79T123 115T164 129Q175 129 183 128T203 123L223
117Q248 107 270 86T293 33V20ZM338 487Q338 473 357 451T406 404T473 353T544 307T608 273T651 260Q688 260 714 270T756 297T780 332T788 369Q788 382 786 398T776 431T757 464T723 496Q710 505 685 513T624 527T546 537T453 541Q433 541 413 539T376 530T349
514T338 487Z" />
<glyph unicode="&#xa8;" glyph-name="dieresis" horiz-adv-x="868" d="M270 979Q241 979 216 987T172 1011T142 1048T131 1094Q131 1136 164 1162T254 1188Q280 1188 304 1179T346 1153T376 1116T387 1071Q387 1028 356 1004T270 979ZM618 979Q589 979 564 987T520
1011T490 1048T479 1094Q479 1136 512 1162T602 1188Q628 1188 652 1179T694 1153T724 1116T735 1071Q735 1028 704 1004T618 979Z" />
<glyph unicode="&#xa9;" glyph-name="copyright" horiz-adv-x="1372" d="M618 -178Q498 -178 397 -138T224 -24T111 151T70 375Q70 441 81 501T113 614Q119 627 121 633T123 645Q123 656 117 666T105 686T92 709T86 737Q86 768 110 798T177 856T278 907T405 948T548
975T700 985Q842 985 956 949T1150 845T1274 680T1317 463Q1317 373 1293 291T1223 137T1115 7T975 -92T807 -155T618 -178ZM1161 422Q1161 522 1127 601T1031 735T879 819T680 848Q566 848 481 817T339 730T254 596T225 422Q225 319 257 234T346 87T484 -7T662
-41Q771 -41 863 -7T1021 88T1124 235T1161 422ZM618 602Q595 602 575 589T539 553T515 498T506 426Q506 388 522 357T568 302T638 265T727 252Q762 252 792 257T843 272T877 293T889 317Q889 328 884 335T873 350T861 368T856 393Q856 408 864 422T887 447T919
466T958 473Q982 473 1002 462T1037 433T1060 391T1069 342Q1069 292 1041 249T965 174T852 124T713 106Q630 106 560 129T438 192T357 288T328 406Q328 473 353 534T423 643T527 719T653 748Q684 748 712 740T761 719T794 687T807 649Q807 633 799 617T777 588T745
567T705 559Q685 559 673 565T652 580T636 595T618 602Z" />
<glyph unicode="&#xaa;" glyph-name="ordfeminine" horiz-adv-x="866" d="M549 1110Q593 1110 633 1097T705 1061T755 1006T774 936Q774 918 767 902T747 874T718 853T684 842Q684 745 707 702T768 659Q785 659 796 663T817 670Q830 673 839 675T858 678Q883 678
900 657T918 608Q918 585 901 562T855 521T791 491T719 479Q657 479 610 525T541 659Q463 573 378 530T211 487Q126 487 79 531T31 651Q31 699 54 751T117 855T209 952T319 1033T436 1089T549 1110ZM510 872Q524 895 536 908T563 926Q555 934 546 938T522 942Q496
942 463 929T396 894T330 845T272 788T231 731T215 680Q215 671 224 665T250 659Q307 659 374 712T510 872Z" />
<glyph unicode="&#xab;" glyph-name="guillemotleft" horiz-adv-x="866" d="M625 702Q639 716 654 722T684 729Q697 729 712 724T739 709T760 687T768 662Q768 639 744 612T689 556T635 495T610 434Q610 412 624 392T660 351T707 312T754 275T790 240T805 207Q805
180 780 154Q759 129 743 119T709 109Q696 109 683 114T657 129Q620 156 578 189T499 258T438 332T414 408Q414 439 436 479T490 559T559 637T625 702ZM315 666Q329 678 344 685T375 692Q387 692 401 687T428 671T449 649T457 623Q457 600 431 573T374 516T317
456T291 397Q291 376 305 356T342 317T389 278T436 241T472 204T487 168Q487 142 463 115Q443 90 427 81T393 72Q381 72 368 76T340 92Q325 103 302 121T253 161T199 208T151 261T116 315T102 367Q102 402 123 442T176 522T245 599T315 666Z" />
<glyph unicode="&#xac;" glyph-name="logicalnot" horiz-adv-x="1186" d="M1069 506Q1064 474 1060 433T1053 342T1045 235T1034 117Q1032 91 1018 77T985 56T943 48T901 47Q889 47 877 49T854 60T838 84T831 125Q831 163 835 203T845 285T855 367T860 449Q860
469 848 481T813 494Q735 496 655 500T488 511T307 527T104 551Q72 556 58 578T43 647Q43 697 68 721T129 745Q156 745 231 737T411 718T642 696T897 678Q931 678 964 685T1020 692Q1046 692 1066 672T1087 614Q1087 597 1085 584T1080 558T1074 533T1069 506Z"
/>
<glyph unicode="&#xae;" glyph-name="registered" horiz-adv-x="1372" d="M618 -178Q498 -178 397 -138T224 -24T111 151T70 375Q70 441 81 501T113 614Q119 627 121 633T123 645Q123 656 117 666T105 686T92 709T86 737Q86 768 110 798T177 856T278 907T405 948T548
975T700 985Q842 985 956 949T1150 845T1274 680T1317 463Q1317 373 1293 291T1223 137T1115 7T975 -92T807 -155T618 -178ZM1161 422Q1161 522 1127 601T1031 735T879 819T680 848Q566 848 481 817T339 730T254 596T225 422Q225 319 257 234T346 87T484 -7T662
-41Q771 -41 863 -7T1021 88T1124 235T1161 422ZM473 631Q482 631 483 635T487 655Q489 674 504 689T545 717T600 738T662 752T723 761T776 764Q806 764 837 757T893 732T935 685T952 614Q952 579 937 548T897 489T843 440T784 399Q762 386 762 371Q762 355 791
346L971 285Q1012 268 1012 229Q1012 214 1005 199T985 172T959 153T930 145Q928 145 925 145T914 148T896 154T866 166Q852 171 827 180T771 199T706 221T639 244Q633 246 627 247T616 248Q594 248 594 227Q594 215 597 192T600 154Q600 142 591 131T569 111T538
97T506 92Q486 92 468 107T446 147Q432 247 413 344T367 537Q365 542 364 546T362 557Q362 579 375 593T407 616T444 627T473 631ZM547 578Q538 578 532 573T526 559Q526 557 526 554T529 542T535 520T545 483Q553 454 561 445T580 436Q590 436 602 442Q632 458
666 478T729 521T778 564T797 602Q797 618 783 621T745 625Q705 625 661 612T575 584Q560 578 547 578Z" />
<glyph unicode="&#xaf;" glyph-name="overscore" horiz-adv-x="868" d="M147 1059Q116 1059 99 1082T82 1147Q82 1193 119 1212T248 1231Q271 1231 307 1233T385 1237T474 1243T563 1248T643 1253T705 1255Q751 1255 768 1234T786 1155Q786 1123 755 1107T666
1090Q640 1090 601 1088T515 1082T417 1075T317 1067T224 1062T147 1059Z" />
<glyph unicode="&#xb0;" glyph-name="degree" horiz-adv-x="922" d="M57 772Q57 847 87 913T170 1028T294 1105T449 1133Q536 1133 611 1107T743 1035T831 928T864 797Q864 728 829 667T733 561T591 488T418 461Q337 461 270 483T156 546T83 644T57 772ZM684 772Q684
810 663 844T606 905T521 946T418 961Q380 961 348 949T293 917T256 868T242 809Q242 724 292 678T436 631Q487 631 532 642T611 672T664 717T684 772Z" />
<glyph unicode="&#xb1;" glyph-name="plusminus" horiz-adv-x="995" d="M86 483Q54 483 37 498T20 539Q20 545 21 551T25 563L35 606Q50 668 113 668Q182 668 226 670T299 672Q336 672 350 685T365 721Q365 777 360 832T354 944Q354 978 368 998T416 1024L479
1036Q484 1036 488 1037T498 1038Q556 1038 559 975L569 735Q571 712 583 699T618 686Q690 686 760 694T903 702Q937 702 955 688T973 641L971 592Q968 523 899 520L625 504Q599 502 587 489T575 444Q575 413 573 369T571 291Q571 251 554 224T506 190L444 178Q439
176 435 176T426 176Q397 176 382 194T367 244Q367 293 369 341T371 438Q371 489 322 489Q265 489 206 487T86 483ZM100 -131Q55 -131 37 -107T29 -39L35 -18Q49 53 125 53Q318 56 510 67T895 88Q937 90 957 69T975 6L973 -12Q970 -91 891 -94Q693 -103 496 -115T100
-131Z" />
<glyph unicode="&#xb2;" glyph-name="twosuperior" horiz-adv-x="811" d="M268 1030Q241 987 207 987Q199 987 189 989T166 997H168L154 1004Q109 1023 109 1069Q109 1080 112 1091T123 1112Q144 1141 173 1166T238 1209T317 1238T412 1249Q466 1249 515 1234T600
1191T658 1122T680 1030Q680 973 656 920T594 817T507 723T410 641Q482 638 555 632T700 618Q731 615 748 598T766 551Q766 543 765 537T762 524L756 508Q737 444 678 444H668Q612 450 552 455T429 465T305 471T186 475Q152 475 132 494T106 549L104 561V578Q104
625 145 653Q195 685 256 727T370 816T458 912T494 1006Q494 1023 485 1036T460 1059T424 1074T381 1079Q334 1079 309 1065T268 1030Z" />
<glyph unicode="&#xb3;" glyph-name="threesuperior" horiz-adv-x="842" d="M322 782Q315 780 310 779T299 778Q271 778 254 796T231 846L227 874Q227 878 226 881T225 887Q225 949 289 965Q303 968 314 968T336 971Q341 971 346 971T358 973Q380 975 395 978T420
991Q436 1012 436 1032Q436 1049 423 1060T390 1079T346 1090T301 1094Q252 1094 214 1080T143 1044Q114 1024 92 1024Q64 1024 35 1057L18 1075Q9 1086 4 1099T-2 1126Q-2 1145 6 1161T31 1186Q94 1228 169 1246T332 1264Q393 1264 445 1249T536 1205T596 1138T618
1051Q618 1022 610 994T582 942L586 936Q671 901 711 836T752 694Q752 635 725 590T652 514T549 467T430 451Q376 451 327 463T238 500T168 561T125 643Q123 649 122 655T121 668Q121 699 140 716T190 733Q219 733 238 730T271 719T295 698T317 664Q324 651 338
643T371 631T410 625T451 623Q503 623 536 638T569 692Q569 714 559 733T532 766T492 790T446 801Q441 801 436 802T424 803Q412 803 401 802T377 795Q364 792 349 788T322 782Z" />
<glyph unicode="&#xb4;" glyph-name="acute" horiz-adv-x="868" d="M674 1245Q674 1230 660 1216T621 1185T563 1146T494 1091T418 1013T342 905Q334 891 320 886T287 881Q270 881 254 885T224 897T202 915T193 938Q193 965 209 1005T253 1090T317 1179T394 1259T476
1317T557 1339Q575 1339 595 1329T633 1305T662 1274T674 1245Z" />
<glyph unicode="&#xb5;" glyph-name="mu" horiz-adv-x="961" d="M293 354Q293 220 334 147T453 74Q502 74 543 103T615 184T661 307T678 463Q678 514 674 551T666 618T657 671T653 715Q653 747 680 761T766 776Q841 776 882 742T924 643Q924 466 891 325T796 86T646
-66T449 -119Q393 -119 343 -102T256 -37Q240 -14 229 -14Q219 -14 213 -45Q201 -121 191 -189T170 -321T151 -445T133 -565Q130 -585 124 -599T103 -624T66 -638T8 -643Q-68 -643 -68 -578Q-68 -573 -68 -568T-66 -557Q-34 -339 -4 -118T55 336Q55 374 57 417T63
509T73 617T88 743Q91 772 115 789T178 807Q212 807 242 800T293 781T327 753T340 719Q340 701 333 663T317 575T301 468T293 354Z" />
<glyph unicode="&#xb6;" glyph-name="paragraph" horiz-adv-x="1028" d="M674 -115Q674 -147 647 -163T571 -180Q520 -180 495 -156T469 -76Q469 -45 472 -5T479 76T486 154T489 217Q489 254 455 260Q363 282 285 322T148 417T56 538T23 676Q23 754 49 821T122
937T233 1014T373 1042Q528 1042 655 1015T872 940T1011 823T1061 670Q1061 610 1034 579T969 547Q915 547 889 564T853 606T843 660T843 715T832 757T793 774Q761 774 747 738T725 625Q720 571 715 505T703 367T692 224T683 88T677 -29T674 -115Z" />
<glyph unicode="&#xb7;" glyph-name="middot" horiz-adv-x="643" d="M336 366Q307 366 282 375T237 399T208 436T197 481Q197 523 230 549T319 575Q345 575 369 566T412 540T442 503T453 459Q453 415 422 391T336 366Z" />
<glyph unicode="&#xb8;" glyph-name="cedilla" horiz-adv-x="868" d="M373 -4Q382 22 407 33T471 45Q503 45 521 31T539 -8Q539 -30 531 -51T522 -84Q522 -99 535 -111T571 -137Q622 -168 644 -209T666 -291Q666 -327 647 -366T593 -437T509 -491T401 -512Q371
-512 336 -502T271 -474T221 -435T201 -391Q201 -373 214 -355T245 -323T280 -299T307 -289Q316 -289 328 -298T357 -319T393 -340T434 -350Q489 -350 489 -311Q489 -297 476 -283T440 -258Q412 -243 394 -231T365 -205T350 -178T346 -145Q346 -114 352 -80T373
-4Z" />
<glyph unicode="&#xb9;" glyph-name="onesuperior" horiz-adv-x="670" d="M117 854Q87 831 63 831Q49 831 33 838T4 856T-18 882T-27 913Q-27 930 -10 950T34 993T97 1037T167 1079T236 1115T293 1141Q310 1146 324 1149T350 1153Q389 1153 413 1138T451 1099T473
1047T487 991L492 971Q501 930 508 889T521 802T532 708T543 602Q543 568 513 542T426 516Q397 516 378 534T356 586Q348 672 339 757T307 928Q301 946 281 946Q268 946 248 937T204 913T158 882T117 854Z" />
<glyph unicode="&#xba;" glyph-name="ordmasculine" horiz-adv-x="889" d="M121 731Q121 740 122 748T123 764Q123 778 113 786T90 805T68 828T57 866Q57 897 81 924T143 974T227 1015T320 1045T407 1064T473 1071Q548 1071 613 1046T726 978T803 876T831 752Q831
687 802 629T722 526T604 456T461 430Q387 430 325 453T217 516T147 611T121 731ZM477 598Q505 598 535 607T591 635T633 679T649 737Q649 771 634 800T593 850T532 884T455 897Q380 897 342 866T303 770Q303 733 316 702T352 647T407 611T477 598Z" />
<glyph unicode="&#xbb;" glyph-name="guillemotright" horiz-adv-x="866" d="M242 98Q215 72 182 72Q169 72 154 77T127 92T106 114T98 139Q98 161 122 188T177 245T231 306T256 367Q256 388 242 409T206 450T159 489T112 526T76 561T61 594Q61 619 86 647Q108
672 124 682T158 692Q170 692 183 687T209 672Q246 645 288 612T367 543T428 469T453 393Q453 361 431 322T377 241T308 163T242 98ZM551 135Q537 123 522 116T492 109Q480 109 466 114T439 129T418 151T410 178Q410 193 422 210T452 247T492 285T532 325T563 364T575
403Q575 424 561 444T524 484T477 522T430 560T394 597T379 633Q379 659 403 686Q423 711 439 720T473 729Q485 729 498 725T526 709Q541 698 565 680T615 640T668 593T716 540T750 486T764 434Q764 399 743 359T690 279T621 202T551 135Z" />
<glyph unicode="&#xbc;" glyph-name="onequarter" horiz-adv-x="1581" d="M292 854Q262 831 238 831Q224 831 208 838T179 856T157 882T148 913Q148 930 165 950T209 993T272 1037T342 1079T411 1115T468 1141Q485 1146 499 1149T525 1153Q564 1153 588 1138T626
1099T648 1047T662 991L667 971Q676 930 683 889T696 802T707 708T718 602Q718 568 688 542T601 516Q572 516 553 534T531 586Q523 672 514 757T482 928Q476 946 456 946Q443 946 423 937T379 913T333 882T292 854ZM700 1112Q710 1158 758 1161L852 1165Q881 1163
891 1150T901 1108Q848 797 791 488T661 -131Q655 -157 640 -165T600 -174L510 -164Q488 -162 477 -151T465 -119Q465 -116 465 -112T467 -102Q512 107 546 276T608 590T658 861T700 1112ZM1484 341Q1516 339 1534 322T1552 274Q1552 267 1552 259T1546 233Q1536
198 1521 184T1484 169L1476 163Q1485 127 1490 106T1497 74T1500 58T1501 52Q1501 23 1486 6T1445 -21Q1422 -29 1405 -32T1382 -36Q1356 -36 1342 -20T1319 19T1307 70T1298 121T1284 161T1257 177L1116 187Q1083 187 1037 192T949 213T877 254T847 323Q847 357
866 396T914 473T974 546T1030 609L1087 677Q1095 686 1099 694T1103 708Q1103 716 1099 726T1095 751Q1095 777 1118 796T1198 816Q1219 816 1238 809T1271 791T1295 767T1304 740Q1304 729 1304 718T1308 693L1351 570L1423 351Q1426 343 1449 343L1484 341ZM1224
349L1177 482Q1172 495 1169 498T1161 501Q1158 501 1155 499T1144 489L1050 368L1224 349Z" />
<glyph unicode="&#xbd;" glyph-name="onehalf" horiz-adv-x="1614" d="M700 1112Q710 1158 758 1161L852 1165Q881 1163 891 1150T901 1108Q848 797 791 488T661 -131Q655 -157 640 -165T600 -174L510 -164Q488 -162 477 -151T465 -119Q465 -116 465 -112T467
-102Q512 107 546 276T608 590T658 861T700 1112ZM1071 599Q1044 556 1010 556Q1002 556 992 558T969 566H971L957 573Q912 592 912 638Q912 649 915 660T926 681Q947 710 976 735T1041 778T1120 807T1215 818Q1269 818 1318 803T1403 760T1461 691T1483 599Q1483
542 1459 489T1397 386T1310 292T1213 210Q1285 207 1358 201T1503 187Q1534 184 1551 167T1569 120Q1569 112 1568 106T1565 93L1559 77Q1540 13 1481 13H1471Q1415 19 1355 24T1232 34T1108 40T989 44Q955 44 935 63T909 118L907 130V147Q907 194 948 222Q998
254 1059 296T1173 385T1261 481T1297 575Q1297 592 1288 605T1263 628T1227 643T1184 648Q1137 648 1112 634T1071 599ZM292 854Q262 831 238 831Q224 831 208 838T179 856T157 882T148 913Q148 930 165 950T209 993T272 1037T342 1079T411 1115T468 1141Q485
1146 499 1149T525 1153Q564 1153 588 1138T626 1099T648 1047T662 991L667 971Q676 930 683 889T696 802T707 708T718 602Q718 568 688 542T601 516Q572 516 553 534T531 586Q523 672 514 757T482 928Q476 946 456 946Q443 946 423 937T379 913T333 882T292 854Z"
/>
<glyph unicode="&#xbe;" glyph-name="threequarters" horiz-adv-x="1704" d="M477 782Q470 780 465 779T454 778Q426 778 409 796T386 846L382 874Q382 878 381 881T380 887Q380 949 444 965Q458 968 469 968T491 971Q496 971 501 971T513 973Q535 975 550 978T575
991Q591 1012 591 1032Q591 1049 578 1060T545 1079T501 1090T456 1094Q407 1094 369 1080T298 1044Q269 1024 247 1024Q219 1024 190 1057L173 1075Q164 1086 159 1099T153 1126Q153 1145 161 1161T186 1186Q249 1228 324 1246T487 1264Q548 1264 600 1249T691
1205T751 1138T773 1051Q773 1022 765 994T737 942L741 936Q826 901 866 836T907 694Q907 635 880 590T807 514T704 467T585 451Q531 451 482 463T393 500T323 561T280 643Q278 649 277 655T276 668Q276 699 295 716T345 733Q374 733 393 730T426 719T450 698T472
664Q479 651 493 643T526 631T565 625T606 623Q658 623 691 638T724 692Q724 714 714 733T687 766T647 790T601 801Q596 801 591 802T579 803Q567 803 556 802T532 795Q519 792 504 788T477 782ZM823 1112Q833 1158 881 1161L975 1165Q1004 1163 1014 1150T1024
1108Q971 797 914 488T784 -131Q778 -157 763 -165T723 -174L633 -164Q611 -162 600 -151T588 -119Q588 -116 588 -112T590 -102Q635 107 669 276T731 590T781 861T823 1112ZM1607 341Q1639 339 1657 322T1675 274Q1675 267 1675 259T1669 233Q1659 198 1644 184T1607
169L1599 163Q1608 127 1613 106T1620 74T1623 58T1624 52Q1624 23 1609 6T1568 -21Q1545 -29 1528 -32T1505 -36Q1479 -36 1465 -20T1442 19T1430 70T1421 121T1407 161T1380 177L1239 187Q1206 187 1160 192T1072 213T1000 254T970 323Q970 357 989 396T1037
473T1097 546T1153 609L1210 677Q1218 686 1222 694T1226 708Q1226 716 1222 726T1218 751Q1218 777 1241 796T1321 816Q1342 816 1361 809T1394 791T1418 767T1427 740Q1427 729 1427 718T1431 693L1474 570L1546 351Q1549 343 1572 343L1607 341ZM1347 349L1300
482Q1295 495 1292 498T1284 501Q1281 501 1278 499T1267 489L1173 368L1347 349Z" />
<glyph unicode="&#xbf;" glyph-name="questiondown" horiz-adv-x="1106" d="M877 201Q877 173 860 151T799 106Q773 94 756 94Q737 94 720 102T686 127Q648 159 605 176T524 193Q471 193 431 166T363 96T321 3T307 -94Q307 -174 333 -234T401 -336T498 -397T608
-418Q664 -418 714 -399T802 -346T864 -264T893 -158Q896 -123 908 -103T946 -82Q975 -82 1002 -93T1051 -123T1085 -169T1098 -227Q1098 -234 1098 -241T1096 -256Q1086 -310 1059 -357T991 -442T902 -510T799 -560T692 -591T588 -602Q504 -602 418 -574T262 -487T147
-340T102 -131Q102 -68 116 -7T158 111T225 214T315 297T425 351T553 371Q590 371 621 366T674 360Q691 360 710 364T754 381Q766 387 776 390T797 393Q844 393 856 328L877 201ZM766 543Q737 543 712 551T667 575T638 612T627 657Q627 699 660 725T750 752Q776
752 800 743T842 717T872 679T883 635Q883 592 852 568T766 543Z" />
<glyph unicode="&#xc0;" glyph-name="Agrave" horiz-adv-x="1208" d="M63 199Q46 199 38 216T29 264Q29 269 29 275T31 301Q34 373 102 385L125 387Q148 390 161 401T180 434Q197 491 214 549T250 664Q260 696 270 732T293 805T322 876T360 940Q369 952 385 965T421
988T465 1005T512 1012Q542 1012 571 993Q610 966 648 928T733 831T842 689T991 487Q1004 472 1018 465T1053 457H1110Q1145 457 1164 441T1184 395Q1184 389 1184 381T1180 365L1161 309Q1159 301 1158 295T1157 283Q1157 262 1171 240L1278 94Q1296 67 1296 43Q1296
7 1255 -20L1217 -47Q1203 -56 1191 -61T1165 -66Q1147 -66 1132 -56T1102 -27Q1054 41 1006 107T907 238Q884 270 846 270Q724 265 605 257T365 236Q322 232 311 190L266 25Q248 -41 186 -41H170L139 -37Q105 -34 88 -16T70 31Q70 37 71 44T74 59Q79 79 84 100T96
141Q98 149 99 155T100 168Q100 199 76 199H63ZM539 727Q529 736 521 742T504 748Q479 748 469 713Q449 654 431 597T393 479Q391 474 391 470T391 461Q391 424 430 424H440Q500 432 560 436T680 444Q700 446 711 454T723 477Q723 490 711 508Q669 564 627 618T539
727ZM180 1427Q180 1439 191 1455T220 1486T258 1511T296 1521Q334 1521 376 1499T459 1442T536 1362T600 1273T644 1188T661 1120Q661 1108 653 1098T631 1080T601 1068T567 1063Q548 1063 534 1068T511 1087Q474 1149 436 1194T360 1272T291 1327T234 1367T195
1398T180 1427Z" />
<glyph unicode="&#xc1;" glyph-name="Aacute" horiz-adv-x="1208" d="M63 199Q46 199 38 216T29 264Q29 269 29 275T31 301Q34 373 102 385L125 387Q148 390 161 401T180 434Q197 491 214 549T250 664Q260 696 270 732T293 805T322 876T360 940Q369 952 385 965T421
988T465 1005T512 1012Q542 1012 571 993Q610 966 648 928T733 831T842 689T991 487Q1004 472 1018 465T1053 457H1110Q1145 457 1164 441T1184 395Q1184 389 1184 381T1180 365L1161 309Q1159 301 1158 295T1157 283Q1157 262 1171 240L1278 94Q1296 67 1296 43Q1296
7 1255 -20L1217 -47Q1203 -56 1191 -61T1165 -66Q1147 -66 1132 -56T1102 -27Q1054 41 1006 107T907 238Q884 270 846 270Q724 265 605 257T365 236Q322 232 311 190L266 25Q248 -41 186 -41H170L139 -37Q105 -34 88 -16T70 31Q70 37 71 44T74 59Q79 79 84 100T96
141Q98 149 99 155T100 168Q100 199 76 199H63ZM539 727Q529 736 521 742T504 748Q479 748 469 713Q449 654 431 597T393 479Q391 474 391 470T391 461Q391 424 430 424H440Q500 432 560 436T680 444Q700 446 711 454T723 477Q723 490 711 508Q669 564 627 618T539
727ZM766 1427Q766 1412 752 1398T713 1367T655 1328T586 1273T510 1195T434 1087Q426 1073 412 1068T379 1063Q362 1063 346 1067T316 1079T294 1097T285 1120Q285 1147 301 1187T345 1272T409 1361T486 1441T568 1499T649 1521Q667 1521 687 1511T725 1487T754
1456T766 1427Z" />
<glyph unicode="&#xc2;" glyph-name="Acircumflex" horiz-adv-x="1208" d="M63 199Q46 199 38 216T29 264Q29 269 29 275T31 301Q34 373 102 385L125 387Q148 390 161 401T180 434Q197 491 214 549T250 664Q260 696 270 732T293 805T322 876T360 940Q369 952 385
965T421 988T465 1005T512 1012Q542 1012 571 993Q610 966 648 928T733 831T842 689T991 487Q1004 472 1018 465T1053 457H1110Q1145 457 1164 441T1184 395Q1184 389 1184 381T1180 365L1161 309Q1159 301 1158 295T1157 283Q1157 262 1171 240L1278 94Q1296 67
1296 43Q1296 7 1255 -20L1217 -47Q1203 -56 1191 -61T1165 -66Q1147 -66 1132 -56T1102 -27Q1054 41 1006 107T907 238Q884 270 846 270Q724 265 605 257T365 236Q322 232 311 190L266 25Q248 -41 186 -41H170L139 -37Q105 -34 88 -16T70 31Q70 37 71 44T74 59Q79
79 84 100T96 141Q98 149 99 155T100 168Q100 199 76 199H63ZM539 727Q529 736 521 742T504 748Q479 748 469 713Q449 654 431 597T393 479Q391 474 391 470T391 461Q391 424 430 424H440Q500 432 560 436T680 444Q700 446 711 454T723 477Q723 490 711 508Q669
564 627 618T539 727ZM360 1226Q345 1208 328 1198T293 1188Q277 1188 262 1194T235 1211T216 1234T209 1259Q209 1275 224 1299T264 1351T319 1406T381 1455T440 1491T487 1505Q515 1505 552 1493T628 1460T706 1415T774 1363T823 1311T842 1267Q842 1251 831
1234T805 1204T771 1182T739 1173Q725 1173 706 1184T665 1212T618 1249T571 1285T525 1313T485 1325Q469 1325 453 1316T420 1292T388 1260T360 1226Z" />
<glyph unicode="&#xc3;" glyph-name="Atilde" horiz-adv-x="1208" d="M63 199Q46 199 38 216T29 264Q29 269 29 275T31 301Q34 373 102 385L125 387Q148 390 161 401T180 434Q197 491 214 549T250 664Q260 696 270 732T293 805T322 876T360 940Q369 952 385 965T421
988T465 1005T512 1012Q542 1012 571 993Q610 966 648 928T733 831T842 689T991 487Q1004 472 1018 465T1053 457H1110Q1145 457 1164 441T1184 395Q1184 389 1184 381T1180 365L1161 309Q1159 301 1158 295T1157 283Q1157 262 1171 240L1278 94Q1296 67 1296 43Q1296
7 1255 -20L1217 -47Q1203 -56 1191 -61T1165 -66Q1147 -66 1132 -56T1102 -27Q1054 41 1006 107T907 238Q884 270 846 270Q724 265 605 257T365 236Q322 232 311 190L266 25Q248 -41 186 -41H170L139 -37Q105 -34 88 -16T70 31Q70 37 71 44T74 59Q79 79 84 100T96
141Q98 149 99 155T100 168Q100 199 76 199H63ZM539 727Q529 736 521 742T504 748Q479 748 469 713Q449 654 431 597T393 479Q391 474 391 470T391 461Q391 424 430 424H440Q500 432 560 436T680 444Q700 446 711 454T723 477Q723 490 711 508Q669 564 627 618T539
727ZM198 1241Q167 1241 150 1264T133 1329Q133 1375 173 1399T303 1423Q327 1423 358 1418T425 1406T497 1395T569 1392Q597 1393 624 1400T676 1416T720 1430T756 1437Q802 1437 819 1416T837 1337Q837 1313 815 1293T756 1258T676 1235T588 1226Q557 1226 520
1230T447 1240T378 1250T323 1255Q286 1255 255 1248T198 1241Z" />
<glyph unicode="&#xc4;" glyph-name="Adieresis" horiz-adv-x="1208" d="M63 199Q46 199 38 216T29 264Q29 269 29 275T31 301Q34 373 102 385L125 387Q148 390 161 401T180 434Q197 491 214 549T250 664Q260 696 270 732T293 805T322 876T360 940Q369 952 385
965T421 988T465 1005T512 1012Q542 1012 571 993Q610 966 648 928T733 831T842 689T991 487Q1004 472 1018 465T1053 457H1110Q1145 457 1164 441T1184 395Q1184 389 1184 381T1180 365L1161 309Q1159 301 1158 295T1157 283Q1157 262 1171 240L1278 94Q1296 67
1296 43Q1296 7 1255 -20L1217 -47Q1203 -56 1191 -61T1165 -66Q1147 -66 1132 -56T1102 -27Q1054 41 1006 107T907 238Q884 270 846 270Q724 265 605 257T365 236Q322 232 311 190L266 25Q248 -41 186 -41H170L139 -37Q105 -34 88 -16T70 31Q70 37 71 44T74 59Q79
79 84 100T96 141Q98 149 99 155T100 168Q100 199 76 199H63ZM539 727Q529 736 521 742T504 748Q479 748 469 713Q449 654 431 597T393 479Q391 474 391 470T391 461Q391 424 430 424H440Q500 432 560 436T680 444Q700 446 711 454T723 477Q723 490 711 508Q669
564 627 618T539 727ZM331 1161Q302 1161 277 1169T233 1193T203 1230T192 1276Q192 1318 225 1344T315 1370Q341 1370 365 1361T407 1335T437 1298T448 1253Q448 1210 417 1186T331 1161ZM679 1161Q650 1161 625 1169T581 1193T551 1230T540 1276Q540 1318 573
1344T663 1370Q689 1370 713 1361T755 1335T785 1298T796 1253Q796 1210 765 1186T679 1161Z" />
<glyph unicode="&#xc5;" glyph-name="Aring" horiz-adv-x="1208" d="M63 199Q46 199 38 216T29 264Q29 269 29 275T31 301Q34 373 102 385L125 387Q148 390 161 401T180 434Q197 491 214 549T250 664Q260 696 270 732T293 805T322 876T360 940Q369 952 385 965T421
988T465 1005T512 1012Q542 1012 571 993Q610 966 648 928T733 831T842 689T991 487Q1004 472 1018 465T1053 457H1110Q1145 457 1164 441T1184 395Q1184 389 1184 381T1180 365L1161 309Q1159 301 1158 295T1157 283Q1157 262 1171 240L1278 94Q1296 67 1296 43Q1296
7 1255 -20L1217 -47Q1203 -56 1191 -61T1165 -66Q1147 -66 1132 -56T1102 -27Q1054 41 1006 107T907 238Q884 270 846 270Q724 265 605 257T365 236Q322 232 311 190L266 25Q248 -41 186 -41H170L139 -37Q105 -34 88 -16T70 31Q70 37 71 44T74 59Q79 79 84 100T96
141Q98 149 99 155T100 168Q100 199 76 199H63ZM539 727Q529 736 521 742T504 748Q479 748 469 713Q449 654 431 597T393 479Q391 474 391 470T391 461Q391 424 430 424H440Q500 432 560 436T680 444Q700 446 711 454T723 477Q723 490 711 508Q669 564 627 618T539
727ZM223 1360Q216 1360 208 1364T192 1377T179 1397T174 1423Q174 1446 192 1466T238 1504T302 1535T373 1559T438 1574T488 1579Q545 1579 595 1560T681 1508T739 1431T760 1335Q760 1285 738 1241T677 1162T588 1109T479 1089Q423 1089 376 1107T295 1156T241
1229T221 1319L223 1360ZM492 1218Q513 1218 536 1225T579 1246T610 1279T623 1323Q623 1349 612 1371T581 1410T534 1436T475 1446Q420 1446 391 1423T361 1349Q361 1322 371 1298T398 1256T439 1228T492 1218Z" />
<glyph unicode="&#xc6;" glyph-name="AE" horiz-adv-x="1866" d="M217 -14Q192 -74 135 -74Q130 -74 127 -73T119 -72L92 -68Q58 -64 42 -49T25 -8Q25 11 33 31Q133 270 234 504T442 975Q456 1006 477 1022T530 1044L582 1053Q588 1055 593 1055T604 1055Q658
1055 680 995L711 915Q722 881 756 881Q761 881 765 881T774 883Q948 926 1121 956T1473 991H1485Q1516 989 1532 973T1548 930Q1548 922 1546 913T1538 879Q1530 841 1508 825T1448 807Q1293 804 1143 779T844 719Q805 710 805 678Q805 673 805 668T809 655L850
549Q856 529 869 521T901 512H913Q1079 544 1243 569T1573 612H1591Q1657 609 1657 535Q1657 484 1636 461T1577 432Q1427 415 1279 395T981 346Q942 340 942 307Q942 301 943 296T946 285L981 182Q987 164 999 154T1028 143Q1031 143 1034 144T1042 145Q1250 187
1454 218T1870 264H1884Q1948 261 1948 203Q1948 197 1946 188T1937 154Q1929 118 1908 101T1849 82Q1657 71 1472 44T1098 -23Q1053 -32 1053 -53Q1053 -61 1058 -80T1063 -113Q1063 -165 1004 -184L958 -199Q940 -205 924 -205Q873 -205 858 -145Q830 -45 799
52T733 246Q721 281 688 281Q683 281 679 281T670 279Q591 260 512 240T354 195Q323 185 305 168T274 121L217 -14ZM578 666Q565 698 543 698Q522 698 510 668L418 461Q412 449 412 436Q412 422 420 414T444 406Q449 406 454 407T465 410Q499 419 533 427T602 444Q621
451 631 460T641 485Q641 498 635 510Q621 548 607 586T578 666Z" />
<glyph unicode="&#xc7;" glyph-name="Ccedilla" horiz-adv-x="1110" d="M504 872Q448 872 401 846T318 773T262 663T242 528Q242 454 275 392T368 283T508 210T684 184Q753 184 814 196T922 230T995 279T1022 340Q1022 365 1013 381T993 411T972 438T963 473Q963
493 973 511T1000 543T1040 565T1087 573Q1116 573 1141 558T1185 517T1214 455T1225 379Q1225 298 1182 229T1063 109T883 31T657 2Q522 2 408 38T212 140T83 294T37 489Q37 605 77 708T188 888T351 1010T551 1055Q598 1055 637 1045T706 1015T751 971T768 915Q768
891 758 870T730 832T691 805T643 795Q617 795 602 807T573 833T545 860T504 872ZM574 -4Q583 22 608 33T672 45Q704 45 722 31T740 -8Q740 -30 732 -51T723 -84Q723 -99 736 -111T772 -137Q823 -168 845 -209T867 -291Q867 -327 848 -366T794 -437T710 -491T602
-512Q572 -512 537 -502T472 -474T422 -435T402 -391Q402 -373 415 -355T446 -323T481 -299T508 -289Q517 -289 529 -298T558 -319T594 -340T635 -350Q690 -350 690 -311Q690 -297 677 -283T641 -258Q613 -243 595 -231T566 -205T551 -178T547 -145Q547 -114 553
-80T574 -4Z" />
<glyph unicode="&#xc8;" glyph-name="Egrave" horiz-adv-x="1276" d="M160 246Q157 246 151 245T137 243T122 241T111 240Q83 240 62 263T41 326Q41 352 58 376T111 416Q122 421 128 427T135 446Q135 478 134 514T129 600Q128 610 123 619T111 639T99 665T94 700Q94
719 99 743T122 789T171 825T254 840Q275 840 289 836T313 827T332 817T350 813Q366 813 414 819T529 836T678 861T844 891T1008 925T1153 958Q1173 963 1188 963Q1209 963 1221 954T1240 930T1247 899T1249 866Q1249 840 1232 818T1174 782Q1075 753 975 732T772
693T567 661T362 633Q348 631 341 623T334 600V559Q334 542 335 524T339 491T349 467T365 457Q389 457 439 467T553 491T686 523T818 555T927 580T993 590Q1021 590 1035 570T1055 518Q1055 513 1056 509T1057 500Q1057 471 1040 447T977 410Q965 406 929 398T844
378T738 353T626 328T524 304T446 285Q419 278 414 274T408 264Q410 242 430 223T482 188T553 159T635 138T719 124T795 119Q810 119 838 119T899 120T968 125T1032 133T1079 147T1098 168Q1098 179 1091 191T1083 217Q1083 237 1094 256T1122 291T1162 316T1208
326Q1237 326 1261 315T1302 285T1329 242T1339 193Q1339 127 1291 79T1164 0T988 -47T791 -63Q675 -63 579 -48T407 2T276 90T186 223Q174 246 160 246ZM359 1360Q359 1372 370 1388T399 1419T437 1444T475 1454Q513 1454 555 1432T638 1375T715 1295T779 1206T823
1121T840 1053Q840 1041 832 1031T810 1013T780 1001T746 996Q727 996 713 1001T690 1020Q653 1082 615 1127T539 1205T470 1260T413 1300T374 1331T359 1360Z" />
<glyph unicode="&#xc9;" glyph-name="Eacute" horiz-adv-x="1276" d="M160 246Q157 246 151 245T137 243T122 241T111 240Q83 240 62 263T41 326Q41 352 58 376T111 416Q122 421 128 427T135 446Q135 478 134 514T129 600Q128 610 123 619T111 639T99 665T94 700Q94
719 99 743T122 789T171 825T254 840Q275 840 289 836T313 827T332 817T350 813Q366 813 414 819T529 836T678 861T844 891T1008 925T1153 958Q1173 963 1188 963Q1209 963 1221 954T1240 930T1247 899T1249 866Q1249 840 1232 818T1174 782Q1075 753 975 732T772
693T567 661T362 633Q348 631 341 623T334 600V559Q334 542 335 524T339 491T349 467T365 457Q389 457 439 467T553 491T686 523T818 555T927 580T993 590Q1021 590 1035 570T1055 518Q1055 513 1056 509T1057 500Q1057 471 1040 447T977 410Q965 406 929 398T844
378T738 353T626 328T524 304T446 285Q419 278 414 274T408 264Q410 242 430 223T482 188T553 159T635 138T719 124T795 119Q810 119 838 119T899 120T968 125T1032 133T1079 147T1098 168Q1098 179 1091 191T1083 217Q1083 237 1094 256T1122 291T1162 316T1208
326Q1237 326 1261 315T1302 285T1329 242T1339 193Q1339 127 1291 79T1164 0T988 -47T791 -63Q675 -63 579 -48T407 2T276 90T186 223Q174 246 160 246ZM946 1360Q946 1345 932 1331T893 1300T835 1261T766 1206T690 1128T614 1020Q606 1006 592 1001T559 996Q542
996 526 1000T496 1012T474 1030T465 1053Q465 1080 481 1120T525 1205T589 1294T666 1374T748 1432T829 1454Q847 1454 867 1444T905 1420T934 1389T946 1360Z" />
<glyph unicode="&#xca;" glyph-name="Ecircumflex" horiz-adv-x="1276" d="M160 246Q157 246 151 245T137 243T122 241T111 240Q83 240 62 263T41 326Q41 352 58 376T111 416Q122 421 128 427T135 446Q135 478 134 514T129 600Q128 610 123 619T111 639T99 665T94
700Q94 719 99 743T122 789T171 825T254 840Q275 840 289 836T313 827T332 817T350 813Q366 813 414 819T529 836T678 861T844 891T1008 925T1153 958Q1173 963 1188 963Q1209 963 1221 954T1240 930T1247 899T1249 866Q1249 840 1232 818T1174 782Q1075 753 975
732T772 693T567 661T362 633Q348 631 341 623T334 600V559Q334 542 335 524T339 491T349 467T365 457Q389 457 439 467T553 491T686 523T818 555T927 580T993 590Q1021 590 1035 570T1055 518Q1055 513 1056 509T1057 500Q1057 471 1040 447T977 410Q965 406 929
398T844 378T738 353T626 328T524 304T446 285Q419 278 414 274T408 264Q410 242 430 223T482 188T553 159T635 138T719 124T795 119Q810 119 838 119T899 120T968 125T1032 133T1079 147T1098 168Q1098 179 1091 191T1083 217Q1083 237 1094 256T1122 291T1162
316T1208 326Q1237 326 1261 315T1302 285T1329 242T1339 193Q1339 127 1291 79T1164 0T988 -47T791 -63Q675 -63 579 -48T407 2T276 90T186 223Q174 246 160 246ZM540 1159Q525 1141 508 1131T473 1121Q457 1121 442 1127T415 1144T396 1167T389 1192Q389 1208
404 1232T444 1284T499 1339T561 1388T620 1424T667 1438Q695 1438 732 1426T808 1393T886 1348T954 1296T1003 1244T1022 1200Q1022 1184 1011 1167T985 1137T951 1115T919 1106Q905 1106 886 1117T845 1145T798 1182T751 1218T705 1246T665 1258Q649 1258 633
1249T600 1225T568 1193T540 1159Z" />
<glyph unicode="&#xcb;" glyph-name="Edieresis" horiz-adv-x="1276" d="M160 246Q157 246 151 245T137 243T122 241T111 240Q83 240 62 263T41 326Q41 352 58 376T111 416Q122 421 128 427T135 446Q135 478 134 514T129 600Q128 610 123 619T111 639T99 665T94
700Q94 719 99 743T122 789T171 825T254 840Q275 840 289 836T313 827T332 817T350 813Q366 813 414 819T529 836T678 861T844 891T1008 925T1153 958Q1173 963 1188 963Q1209 963 1221 954T1240 930T1247 899T1249 866Q1249 840 1232 818T1174 782Q1075 753 975
732T772 693T567 661T362 633Q348 631 341 623T334 600V559Q334 542 335 524T339 491T349 467T365 457Q389 457 439 467T553 491T686 523T818 555T927 580T993 590Q1021 590 1035 570T1055 518Q1055 513 1056 509T1057 500Q1057 471 1040 447T977 410Q965 406 929
398T844 378T738 353T626 328T524 304T446 285Q419 278 414 274T408 264Q410 242 430 223T482 188T553 159T635 138T719 124T795 119Q810 119 838 119T899 120T968 125T1032 133T1079 147T1098 168Q1098 179 1091 191T1083 217Q1083 237 1094 256T1122 291T1162
316T1208 326Q1237 326 1261 315T1302 285T1329 242T1339 193Q1339 127 1291 79T1164 0T988 -47T791 -63Q675 -63 579 -48T407 2T276 90T186 223Q174 246 160 246ZM512 1094Q483 1094 458 1102T414 1126T384 1163T373 1209Q373 1251 406 1277T496 1303Q522 1303
546 1294T588 1268T618 1231T629 1186Q629 1143 598 1119T512 1094ZM860 1094Q831 1094 806 1102T762 1126T732 1163T721 1209Q721 1251 754 1277T844 1303Q870 1303 894 1294T936 1268T966 1231T977 1186Q977 1143 946 1119T860 1094Z" />
<glyph unicode="&#xcc;" glyph-name="Igrave" horiz-adv-x="492" d="M102 934Q102 952 111 967T136 994T173 1013T219 1020Q266 1020 288 1005T315 958Q332 825 343 707T362 481T372 275T375 84Q375 34 340 9T236 -16Q205 -16 188 -2T170 41Q170 213 160 363T136
631T113 826T102 934ZM-105 1429Q-105 1441 -94 1457T-65 1488T-27 1513T11 1523Q49 1523 91 1501T174 1444T251 1364T315 1275T359 1190T376 1122Q376 1110 368 1100T346 1082T316 1070T282 1065Q263 1065 249 1070T226 1089Q189 1151 151 1196T75 1274T6 1329T-51
1369T-90 1400T-105 1429Z" />
<glyph unicode="&#xcd;" glyph-name="Iacute" horiz-adv-x="492" d="M102 934Q102 952 111 967T136 994T173 1013T219 1020Q266 1020 288 1005T315 958Q332 825 343 707T362 481T372 275T375 84Q375 34 340 9T236 -16Q205 -16 188 -2T170 41Q170 213 160 363T136
631T113 826T102 934ZM482 1429Q482 1414 468 1400T429 1369T371 1330T302 1275T226 1197T150 1089Q142 1075 128 1070T95 1065Q78 1065 62 1069T32 1081T10 1099T1 1122Q1 1149 17 1189T61 1274T125 1363T202 1443T284 1501T365 1523Q383 1523 403 1513T441 1489T470
1458T482 1429Z" />
<glyph unicode="&#xce;" glyph-name="Icircumflex" horiz-adv-x="492" d="M102 934Q102 952 111 967T136 994T173 1013T219 1020Q266 1020 288 1005T315 958Q332 825 343 707T362 481T372 275T375 84Q375 34 340 9T236 -16Q205 -16 188 -2T170 41Q170 213 160
363T136 631T113 826T102 934ZM76 1228Q61 1210 44 1200T9 1190Q-7 1190 -22 1196T-49 1213T-68 1236T-75 1261Q-75 1277 -60 1301T-20 1353T35 1408T97 1457T156 1493T203 1507Q231 1507 268 1495T344 1462T422 1417T490 1365T539 1313T558 1269Q558 1253 547
1236T521 1206T487 1184T455 1175Q441 1175 422 1186T381 1214T334 1251T287 1287T241 1315T201 1327Q185 1327 169 1318T136 1294T104 1262T76 1228Z" />
<glyph unicode="&#xcf;" glyph-name="Idieresis" horiz-adv-x="492" d="M102 934Q102 952 111 967T136 994T173 1013T219 1020Q266 1020 288 1005T315 958Q332 825 343 707T362 481T372 275T375 84Q375 34 340 9T236 -16Q205 -16 188 -2T170 41Q170 213 160 363T136
631T113 826T102 934ZM48 1163Q19 1163 -6 1171T-50 1195T-80 1232T-91 1278Q-91 1320 -58 1346T32 1372Q58 1372 82 1363T124 1337T154 1300T165 1255Q165 1212 134 1188T48 1163ZM396 1163Q367 1163 342 1171T298 1195T268 1232T257 1278Q257 1320 290 1346T380
1372Q406 1372 430 1363T472 1337T502 1300T513 1255Q513 1212 482 1188T396 1163Z" />
<glyph unicode="&#xd0;" glyph-name="Eth" horiz-adv-x="1335" d="M100 354Q72 354 55 377T37 446Q37 484 68 504T176 533Q167 584 156 628T134 706T112 759T92 778Q75 778 51 774T-14 764Q-27 762 -36 761T-51 760Q-85 762 -99 779T-113 838Q-113 919 -35 940Q34
956 113 963T289 971Q419 971 547 946T792 878T1009 775T1182 646T1297 500T1339 346Q1339 268 1287 198T1145 73T939 -13T694 -45Q592 -45 481 -26T236 35Q174 52 174 111Q174 124 180 135T192 156T205 175T211 195Q211 233 209 275T201 362Q168 358 142 356T100
354ZM371 780Q342 780 342 760Q342 755 345 743T354 705Q361 672 367 636T380 555Q422 560 459 563T518 567Q555 567 575 545T596 467Q596 411 481 397Q469 395 448 393T401 387L418 209Q419 194 445 181T514 157T612 140T727 133Q805 133 876 151T1002 201T1089
273T1122 358Q1122 431 1065 500T906 625T668 722T371 780Z" />
<glyph unicode="&#xd1;" glyph-name="Ntilde" horiz-adv-x="1337" d="M311 500Q311 458 315 413T324 323T334 233T338 143Q338 94 304 64T213 33Q185 33 161 50T133 104Q128 151 124 209T116 330T109 456T104 578T101 686T100 770Q100 800 104 827T121 874T156
906T217 918Q246 918 282 898T359 842T448 762T545 666T647 565T754 467Q778 446 808 418T871 365T936 323T999 305Q1027 305 1035 329T1044 408Q1044 448 1038 507T1019 633T989 767T948 891Q943 903 939 914T934 940Q934 963 949 981T985 1011T1029 1029T1067
1036Q1100 1036 1126 1001T1171 909T1204 782T1225 640T1237 505T1241 397Q1241 316 1235 255T1208 151T1148 88T1044 66Q992 66 935 87T820 145T702 229T585 327T475 429T375 524Q356 543 340 543Q326 543 319 532T311 500ZM311 1219Q280 1219 263 1242T246 1307Q246
1353 286 1377T416 1401Q440 1401 471 1396T538 1384T610 1373T682 1370Q710 1371 737 1378T789 1394T833 1408T869 1415Q915 1415 932 1394T950 1315Q950 1291 928 1271T869 1236T789 1213T701 1204Q670 1204 633 1208T560 1218T491 1228T436 1233Q399 1233 368
1226T311 1219Z" />
<glyph unicode="&#xd2;" glyph-name="Ograve" horiz-adv-x="1233" d="M555 -125Q446 -125 355 -88T197 15T94 174T57 377Q57 437 67 492T96 596Q104 615 104 623Q104 633 99 642T88 661T77 682T72 707Q72 749 120 789T247 861T426 912T631 932Q760 932 863 899T1039
805T1151 655T1190 457Q1190 334 1141 228T1007 43T805 -80T555 -125ZM989 418Q989 496 962 558T884 662T759 727T590 750Q425 750 342 667T258 418Q258 338 283 272T353 158T460 84T598 57Q684 57 756 83T879 158T960 272T989 418ZM324 1333Q324 1345 335 1361T364
1392T402 1417T440 1427Q478 1427 520 1405T603 1348T680 1268T744 1179T788 1094T805 1026Q805 1014 797 1004T775 986T745 974T711 969Q692 969 678 974T655 993Q618 1055 580 1100T504 1178T435 1233T378 1273T339 1304T324 1333Z" />
<glyph unicode="&#xd3;" glyph-name="Oacute" horiz-adv-x="1233" d="M555 -125Q446 -125 355 -88T197 15T94 174T57 377Q57 437 67 492T96 596Q104 615 104 623Q104 633 99 642T88 661T77 682T72 707Q72 749 120 789T247 861T426 912T631 932Q760 932 863 899T1039
805T1151 655T1190 457Q1190 334 1141 228T1007 43T805 -80T555 -125ZM989 418Q989 496 962 558T884 662T759 727T590 750Q425 750 342 667T258 418Q258 338 283 272T353 158T460 84T598 57Q684 57 756 83T879 158T960 272T989 418ZM912 1333Q912 1318 898 1304T859
1273T801 1234T732 1179T656 1101T580 993Q572 979 558 974T525 969Q508 969 492 973T462 985T440 1003T431 1026Q431 1053 447 1093T491 1178T555 1267T632 1347T714 1405T795 1427Q813 1427 833 1417T871 1393T900 1362T912 1333Z" />
<glyph unicode="&#xd4;" glyph-name="Ocircumflex" horiz-adv-x="1233" d="M555 -125Q446 -125 355 -88T197 15T94 174T57 377Q57 437 67 492T96 596Q104 615 104 623Q104 633 99 642T88 661T77 682T72 707Q72 749 120 789T247 861T426 912T631 932Q760 932 863
899T1039 805T1151 655T1190 457Q1190 334 1141 228T1007 43T805 -80T555 -125ZM989 418Q989 496 962 558T884 662T759 727T590 750Q425 750 342 667T258 418Q258 338 283 272T353 158T460 84T598 57Q684 57 756 83T879 158T960 272T989 418ZM506 1132Q491 1114
474 1104T439 1094Q423 1094 408 1100T381 1117T362 1140T355 1165Q355 1181 370 1205T410 1257T465 1312T527 1361T586 1397T633 1411Q661 1411 698 1399T774 1366T852 1321T920 1269T969 1217T988 1173Q988 1157 977 1140T951 1110T917 1088T885 1079Q871 1079
852 1090T811 1118T764 1155T717 1191T671 1219T631 1231Q615 1231 599 1222T566 1198T534 1166T506 1132Z" />
<glyph unicode="&#xd5;" glyph-name="Otilde" horiz-adv-x="1233" d="M555 -125Q446 -125 355 -88T197 15T94 174T57 377Q57 437 67 492T96 596Q104 615 104 623Q104 633 99 642T88 661T77 682T72 707Q72 749 120 789T247 861T426 912T631 932Q760 932 863 899T1039
805T1151 655T1190 457Q1190 334 1141 228T1007 43T805 -80T555 -125ZM989 418Q989 496 962 558T884 662T759 727T590 750Q425 750 342 667T258 418Q258 338 283 272T353 158T460 84T598 57Q684 57 756 83T879 158T960 272T989 418ZM344 1147Q313 1147 296 1170T279
1235Q279 1281 319 1305T449 1329Q473 1329 504 1324T571 1312T643 1301T715 1298Q743 1299 770 1306T822 1322T866 1336T902 1343Q948 1343 965 1322T983 1243Q983 1219 961 1199T902 1164T822 1141T734 1132Q703 1132 666 1136T593 1146T524 1156T469 1161Q432
1161 401 1154T344 1147Z" />
<glyph unicode="&#xd6;" glyph-name="Odieresis" horiz-adv-x="1233" d="M555 -125Q446 -125 355 -88T197 15T94 174T57 377Q57 437 67 492T96 596Q104 615 104 623Q104 633 99 642T88 661T77 682T72 707Q72 749 120 789T247 861T426 912T631 932Q760 932 863
899T1039 805T1151 655T1190 457Q1190 334 1141 228T1007 43T805 -80T555 -125ZM989 418Q989 496 962 558T884 662T759 727T590 750Q425 750 342 667T258 418Q258 338 283 272T353 158T460 84T598 57Q684 57 756 83T879 158T960 272T989 418ZM477 1067Q448 1067
423 1075T379 1099T349 1136T338 1182Q338 1224 371 1250T461 1276Q487 1276 511 1267T553 1241T583 1204T594 1159Q594 1116 563 1092T477 1067ZM825 1067Q796 1067 771 1075T727 1099T697 1136T686 1182Q686 1224 719 1250T809 1276Q835 1276 859 1267T901 1241T931
1204T942 1159Q942 1116 911 1092T825 1067Z" />
<glyph unicode="&#xd7;" glyph-name="multiply" horiz-adv-x="989" d="M305 150Q281 125 258 125Q250 125 235 135T205 162T179 200T168 244Q168 258 181 277T215 318T259 362T303 406T336 447T350 481Q350 493 335 511T296 551T245 596T194 641T155 684T139 719Q139
724 149 745T174 790T209 833T248 852Q261 852 281 838T326 801T376 753T426 705T472 668T506 653Q519 653 540 672T587 719T640 780T694 841T742 888T778 907Q791 907 808 897T840 871T866 836T877 799Q877 782 861 759T820 708T766 653T713 598T672 548T655 508Q655
497 667 481T699 445T740 404T781 362T812 322T825 287Q825 271 815 248T788 204T755 169T723 154Q709 154 691 167T651 201T609 245T567 289T529 322T500 336Q491 336 467 315T414 265T356 203T305 150Z" />
<glyph unicode="&#xd8;" glyph-name="Oslash" horiz-adv-x="1233" d="M543 1092Q546 1152 606 1161L657 1165Q683 1165 697 1151T711 1112L639 -262Q636 -323 575 -332L522 -336Q496 -336 484 -319T471 -270L543 1092V1092ZM555 -125Q446 -125 355 -88T197 15T94
174T57 377Q57 437 67 492T96 596Q104 615 104 623Q104 633 99 642T88 661T77 682T72 707Q72 749 120 789T247 861T426 912T631 932Q760 932 863 899T1039 805T1151 655T1190 457Q1190 334 1141 228T1007 43T805 -80T555 -125ZM989 418Q989 496 962 558T884 662T759
727T590 750Q425 750 342 667T258 418Q258 338 283 272T353 158T460 84T598 57Q684 57 756 83T879 158T960 272T989 418Z" />
<glyph unicode="&#xd9;" glyph-name="Ugrave" horiz-adv-x="1182" d="M94 823Q100 858 128 875T221 893Q256 893 275 875T295 825Q295 820 294 816T293 807Q282 742 275 672T268 530Q268 437 284 355T343 211T459 114T647 78Q711 78 760 101T841 164T890 260T907
379Q907 443 894 505T858 627T806 747T743 866Q729 893 729 915Q729 954 770 981L811 1008Q838 1026 862 1026Q899 1026 924 981Q962 914 997 846T1058 705T1100 557T1116 399Q1116 286 1079 193T972 34T807 -69T592 -106Q464 -106 365 -62T197 61T94 247T59 481Q59
569 69 657T94 823ZM176 1382Q176 1394 187 1410T216 1441T254 1466T292 1476Q330 1476 372 1454T455 1397T532 1317T596 1228T640 1143T657 1075Q657 1063 649 1053T627 1035T597 1023T563 1018Q544 1018 530 1023T507 1042Q470 1104 432 1149T356 1227T287 1282T230
1322T191 1353T176 1382Z" />
<glyph unicode="&#xda;" glyph-name="Uacute" horiz-adv-x="1182" d="M94 823Q100 858 128 875T221 893Q256 893 275 875T295 825Q295 820 294 816T293 807Q282 742 275 672T268 530Q268 437 284 355T343 211T459 114T647 78Q711 78 760 101T841 164T890 260T907
379Q907 443 894 505T858 627T806 747T743 866Q729 893 729 915Q729 954 770 981L811 1008Q838 1026 862 1026Q899 1026 924 981Q962 914 997 846T1058 705T1100 557T1116 399Q1116 286 1079 193T972 34T807 -69T592 -106Q464 -106 365 -62T197 61T94 247T59 481Q59
569 69 657T94 823ZM762 1382Q762 1367 748 1353T709 1322T651 1283T582 1228T506 1150T430 1042Q422 1028 408 1023T375 1018Q358 1018 342 1022T312 1034T290 1052T281 1075Q281 1102 297 1142T341 1227T405 1316T482 1396T564 1454T645 1476Q663 1476 683 1466T721
1442T750 1411T762 1382Z" />
<glyph unicode="&#xdb;" glyph-name="Ucircumflex" horiz-adv-x="1182" d="M94 823Q100 858 128 875T221 893Q256 893 275 875T295 825Q295 820 294 816T293 807Q282 742 275 672T268 530Q268 437 284 355T343 211T459 114T647 78Q711 78 760 101T841 164T890
260T907 379Q907 443 894 505T858 627T806 747T743 866Q729 893 729 915Q729 954 770 981L811 1008Q838 1026 862 1026Q899 1026 924 981Q962 914 997 846T1058 705T1100 557T1116 399Q1116 286 1079 193T972 34T807 -69T592 -106Q464 -106 365 -62T197 61T94 247T59
481Q59 569 69 657T94 823ZM356 1181Q341 1163 324 1153T289 1143Q273 1143 258 1149T231 1166T212 1189T205 1214Q205 1230 220 1254T260 1306T315 1361T377 1410T436 1446T483 1460Q511 1460 548 1448T624 1415T702 1370T770 1318T819 1266T838 1222Q838 1206
827 1189T801 1159T767 1137T735 1128Q721 1128 702 1139T661 1167T614 1204T567 1240T521 1268T481 1280Q465 1280 449 1271T416 1247T384 1215T356 1181Z" />
<glyph unicode="&#xdc;" glyph-name="Udieresis" horiz-adv-x="1182" d="M94 823Q100 858 128 875T221 893Q256 893 275 875T295 825Q295 820 294 816T293 807Q282 742 275 672T268 530Q268 437 284 355T343 211T459 114T647 78Q711 78 760 101T841 164T890 260T907
379Q907 443 894 505T858 627T806 747T743 866Q729 893 729 915Q729 954 770 981L811 1008Q838 1026 862 1026Q899 1026 924 981Q962 914 997 846T1058 705T1100 557T1116 399Q1116 286 1079 193T972 34T807 -69T592 -106Q464 -106 365 -62T197 61T94 247T59 481Q59
569 69 657T94 823ZM327 1116Q298 1116 273 1124T229 1148T199 1185T188 1231Q188 1273 221 1299T311 1325Q337 1325 361 1316T403 1290T433 1253T444 1208Q444 1165 413 1141T327 1116ZM675 1116Q646 1116 621 1124T577 1148T547 1185T536 1231Q536 1273 569 1299T659
1325Q685 1325 709 1316T751 1290T781 1253T792 1208Q792 1165 761 1141T675 1116Z" />
<glyph unicode="&#xdd;" glyph-name="Yacute" horiz-adv-x="950" d="M-123 856Q-158 882 -158 918Q-158 932 -153 945T-135 973L-106 1006Q-80 1038 -45 1038Q-33 1038 -20 1034T8 1018Q148 913 277 801T528 555Q547 537 561 537Q588 537 594 573L682 924Q697
983 743 983Q753 983 764 980T788 969L823 950Q872 923 872 877Q872 862 866 844Q832 719 798 581T727 297T653 2T575 -293Q559 -354 506 -354Q491 -354 473 -348L440 -338Q409 -330 395 -312T381 -268Q381 -262 381 -254T385 -238Q417 -119 448 -2T508 233Q510
240 511 245T512 256Q512 268 507 279T492 301Q351 457 198 594T-123 856ZM652 1423Q652 1408 638 1394T599 1363T541 1324T472 1269T396 1191T320 1083Q312 1069 298 1064T265 1059Q248 1059 232 1063T202 1075T180 1093T171 1116Q171 1143 187 1183T231 1268T295
1357T372 1437T454 1495T535 1517Q553 1517 573 1507T611 1483T640 1452T652 1423Z" />
<glyph unicode="&#xde;" glyph-name="Thorn" horiz-adv-x="1047" d="M188 -123Q188 -42 181 61T161 273T136 486T111 677T92 821T84 895Q84 955 147 977Q168 984 181 988T203 994T216 996T225 997Q250 997 268 981T289 934L307 776Q310 755 323 744T356 733Q390
733 426 738T498 743Q592 743 670 719T804 654T891 561T922 451Q922 359 877 293T760 181T601 109T430 70Q404 65 397 48T389 6L391 -96Q391 -144 355 -170T256 -197Q224 -197 206 -178T188 -123ZM459 559Q427 559 405 558T369 550T349 533T342 500L362 293Q364
270 375 258T412 246Q432 246 463 251T528 267T596 292T657 327T702 371T719 424Q719 463 692 489T624 530T539 552T459 559Z" />
<glyph unicode="&#xdf;" glyph-name="germandbls" horiz-adv-x="1245" d="M414 -326Q420 -402 344 -418L301 -426Q295 -428 290 -428T279 -428Q215 -428 209 -356Q192 -151 180 52T160 461Q157 523 155 587T152 717Q152 789 160 862T186 1003T234 1129T309 1231T414
1300T553 1325Q612 1325 666 1305T762 1245T829 1150T854 1022Q854 979 842 934T797 838Q784 819 784 809Q784 801 788 798T807 795H838Q887 795 931 779T1014 735T1082 670T1135 591T1168 505T1180 418Q1180 340 1153 263T1074 125T943 25T764 -14Q704 -14 646
5T539 57Q520 70 512 85T504 117Q504 131 510 145T528 174L559 209Q587 242 616 242Q643 242 676 217Q746 168 813 168Q853 168 883 185T934 232T964 299T975 377Q975 422 962 466T923 545T857 601T764 623Q738 623 715 617T674 602Q640 586 614 586Q600 586 585
592T545 618Q510 644 510 674Q510 702 539 733Q562 758 582 786T619 845T644 907T653 971Q653 1002 643 1033T615 1089T571 1129T516 1145Q476 1145 449 1125T404 1073T376 1001T362 921T357 843T356 780Q356 661 360 528T372 253T391 -35T414 -326Z" />
<glyph unicode="&#xe0;" glyph-name="agrave" horiz-adv-x="1137" d="M711 874Q766 874 817 857T907 810T969 738T993 645Q993 624 984 605T958 571T922 548T879 539Q877 539 876 539T872 538Q870 537 868 537L872 457Q876 314 912 248T1008 182Q1029 182 1045
186T1076 195T1104 205T1130 209Q1153 209 1170 189T1188 141Q1188 113 1167 85T1110 35T1031 -2T942 -16Q864 -16 805 48T721 238Q715 258 705 258Q693 258 684 246Q585 121 473 59T252 -4Q201 -4 160 11T91 53T47 120T31 209Q31 278 61 354T144 504T264 645T408
763T562 844T711 874ZM678 528Q696 562 711 577T754 598Q776 601 776 612Q776 620 770 629Q751 655 730 674T674 694Q636 694 589 672T494 614T399 531T316 435T258 338T236 252Q236 218 254 199T305 180Q387 180 484 267T678 528ZM320 1288Q320 1300 331 1316T360
1347T398 1372T436 1382Q474 1382 516 1360T599 1303T676 1223T740 1134T784 1049T801 981Q801 969 793 959T771 941T741 929T707 924Q688 924 674 929T651 948Q614 1010 576 1055T500 1133T431 1188T374 1228T335 1259T320 1288Z" />
<glyph unicode="&#xe1;" glyph-name="aacute" horiz-adv-x="1137" d="M711 874Q766 874 817 857T907 810T969 738T993 645Q993 624 984 605T958 571T922 548T879 539Q877 539 876 539T872 538Q870 537 868 537L872 457Q876 314 912 248T1008 182Q1029 182 1045
186T1076 195T1104 205T1130 209Q1153 209 1170 189T1188 141Q1188 113 1167 85T1110 35T1031 -2T942 -16Q864 -16 805 48T721 238Q715 258 705 258Q693 258 684 246Q585 121 473 59T252 -4Q201 -4 160 11T91 53T47 120T31 209Q31 278 61 354T144 504T264 645T408
763T562 844T711 874ZM678 528Q696 562 711 577T754 598Q776 601 776 612Q776 620 770 629Q751 655 730 674T674 694Q636 694 589 672T494 614T399 531T316 435T258 338T236 252Q236 218 254 199T305 180Q387 180 484 267T678 528ZM907 1288Q907 1273 893 1259T854
1228T796 1189T727 1134T651 1056T575 948Q567 934 553 929T520 924Q503 924 487 928T457 940T435 958T426 981Q426 1008 442 1048T486 1133T550 1222T627 1302T709 1360T790 1382Q808 1382 828 1372T866 1348T895 1317T907 1288Z" />
<glyph unicode="&#xe2;" glyph-name="acircumflex" horiz-adv-x="1137" d="M711 874Q766 874 817 857T907 810T969 738T993 645Q993 624 984 605T958 571T922 548T879 539Q877 539 876 539T872 538Q870 537 868 537L872 457Q876 314 912 248T1008 182Q1029 182
1045 186T1076 195T1104 205T1130 209Q1153 209 1170 189T1188 141Q1188 113 1167 85T1110 35T1031 -2T942 -16Q864 -16 805 48T721 238Q715 258 705 258Q693 258 684 246Q585 121 473 59T252 -4Q201 -4 160 11T91 53T47 120T31 209Q31 278 61 354T144 504T264
645T408 763T562 844T711 874ZM678 528Q696 562 711 577T754 598Q776 601 776 612Q776 620 770 629Q751 655 730 674T674 694Q636 694 589 672T494 614T399 531T316 435T258 338T236 252Q236 218 254 199T305 180Q387 180 484 267T678 528ZM501 1087Q486 1069 469
1059T434 1049Q418 1049 403 1055T376 1072T357 1095T350 1120Q350 1136 365 1160T405 1212T460 1267T522 1316T581 1352T628 1366Q656 1366 693 1354T769 1321T847 1276T915 1224T964 1172T983 1128Q983 1112 972 1095T946 1065T912 1043T880 1034Q866 1034 847
1045T806 1073T759 1110T712 1146T666 1174T626 1186Q610 1186 594 1177T561 1153T529 1121T501 1087Z" />
<glyph unicode="&#xe3;" glyph-name="atilde" horiz-adv-x="1137" d="M711 874Q766 874 817 857T907 810T969 738T993 645Q993 624 984 605T958 571T922 548T879 539Q877 539 876 539T872 538Q870 537 868 537L872 457Q876 314 912 248T1008 182Q1029 182 1045
186T1076 195T1104 205T1130 209Q1153 209 1170 189T1188 141Q1188 113 1167 85T1110 35T1031 -2T942 -16Q864 -16 805 48T721 238Q715 258 705 258Q693 258 684 246Q585 121 473 59T252 -4Q201 -4 160 11T91 53T47 120T31 209Q31 278 61 354T144 504T264 645T408
763T562 844T711 874ZM678 528Q696 562 711 577T754 598Q776 601 776 612Q776 620 770 629Q751 655 730 674T674 694Q636 694 589 672T494 614T399 531T316 435T258 338T236 252Q236 218 254 199T305 180Q387 180 484 267T678 528ZM340 1102Q309 1102 292 1125T275
1190Q275 1236 315 1260T445 1284Q469 1284 500 1279T567 1267T639 1256T711 1253Q739 1254 766 1261T818 1277T862 1291T898 1298Q944 1298 961 1277T979 1198Q979 1174 957 1154T898 1119T818 1096T730 1087Q699 1087 662 1091T589 1101T520 1111T465 1116Q428
1116 397 1109T340 1102Z" />
<glyph unicode="&#xe4;" glyph-name="adieresis" horiz-adv-x="1137" d="M711 874Q766 874 817 857T907 810T969 738T993 645Q993 624 984 605T958 571T922 548T879 539Q877 539 876 539T872 538Q870 537 868 537L872 457Q876 314 912 248T1008 182Q1029 182 1045
186T1076 195T1104 205T1130 209Q1153 209 1170 189T1188 141Q1188 113 1167 85T1110 35T1031 -2T942 -16Q864 -16 805 48T721 238Q715 258 705 258Q693 258 684 246Q585 121 473 59T252 -4Q201 -4 160 11T91 53T47 120T31 209Q31 278 61 354T144 504T264 645T408
763T562 844T711 874ZM678 528Q696 562 711 577T754 598Q776 601 776 612Q776 620 770 629Q751 655 730 674T674 694Q636 694 589 672T494 614T399 531T316 435T258 338T236 252Q236 218 254 199T305 180Q387 180 484 267T678 528ZM473 1022Q444 1022 419 1030T375
1054T345 1091T334 1137Q334 1179 367 1205T457 1231Q483 1231 507 1222T549 1196T579 1159T590 1114Q590 1071 559 1047T473 1022ZM821 1022Q792 1022 767 1030T723 1054T693 1091T682 1137Q682 1179 715 1205T805 1231Q831 1231 855 1222T897 1196T927 1159T938
1114Q938 1071 907 1047T821 1022Z" />
<glyph unicode="&#xe5;" glyph-name="aring" horiz-adv-x="1137" d="M711 874Q766 874 817 857T907 810T969 738T993 645Q993 624 984 605T958 571T922 548T879 539Q877 539 876 539T872 538Q870 537 868 537L872 457Q876 314 912 248T1008 182Q1029 182 1045
186T1076 195T1104 205T1130 209Q1153 209 1170 189T1188 141Q1188 113 1167 85T1110 35T1031 -2T942 -16Q864 -16 805 48T721 238Q715 258 705 258Q693 258 684 246Q585 121 473 59T252 -4Q201 -4 160 11T91 53T47 120T31 209Q31 278 61 354T144 504T264 645T408
763T562 844T711 874ZM678 528Q696 562 711 577T754 598Q776 601 776 612Q776 620 770 629Q751 655 730 674T674 694Q636 694 589 672T494 614T399 531T316 435T258 338T236 252Q236 218 254 199T305 180Q387 180 484 267T678 528ZM364 1221Q357 1221 349 1225T333
1238T320 1258T315 1284Q315 1307 333 1327T379 1365T443 1396T514 1420T579 1435T629 1440Q686 1440 736 1421T822 1369T880 1292T901 1196Q901 1146 879 1102T818 1023T729 970T620 950Q564 950 517 968T436 1017T382 1090T362 1180L364 1221ZM633 1079Q654 1079
677 1086T720 1107T751 1140T764 1184Q764 1210 753 1232T722 1271T675 1297T616 1307Q561 1307 532 1284T502 1210Q502 1183 512 1159T539 1117T580 1089T633 1079Z" />
<glyph unicode="&#xe6;" glyph-name="ae" horiz-adv-x="1579" d="M1456 281Q1487 305 1513 305Q1532 305 1547 294T1574 266T1592 234T1599 207Q1599 177 1569 150Q1524 112 1470 81T1355 28T1228 -7T1094 -20Q995 -20 914 9T774 104Q755 125 737 125Q721 125
705 104Q635 30 549 -7T365 -45Q310 -45 260 -29T170 17T108 92T84 193Q84 252 106 296T168 373T260 428T373 464T498 486T627 498Q648 500 662 510T676 539Q676 575 661 604T619 655T555 688T475 700Q429 700 393 681T328 640T274 599T227 580Q201 580 174 600L166
606Q127 636 127 668Q127 696 156 723Q236 795 331 839T532 883Q611 883 681 850T803 739Q818 715 836 715Q844 715 852 718T870 731Q935 788 1009 814T1159 840Q1219 840 1280 822T1390 768T1470 680T1501 559Q1501 505 1475 465T1383 398T1210 353T938 328Q915
326 901 316T887 291Q887 262 911 239T973 199T1052 173T1130 164Q1221 164 1304 195T1456 281ZM418 139Q445 139 481 151T550 183T606 228T629 279Q629 294 616 303T582 313Q526 313 474 306T381 286T316 256T291 219Q291 197 303 182T333 157T374 143T418 139ZM1233
545Q1270 551 1270 582Q1270 598 1258 611T1227 634T1183 649T1133 655Q1094 655 1053 645T978 617T923 577T901 530Q901 519 907 514T930 508Q945 508 978 511T1054 519T1144 530T1233 545Z" />
<glyph unicode="&#xe7;" glyph-name="ccedilla" horiz-adv-x="696" d="M436 825Q488 825 537 810T623 770T684 712T707 645Q707 623 698 603T674 567T640 542T600 532Q577 532 558 549T518 588T470 627T406 645Q370 645 341 628T293 581T263 509T252 418Q252 278
305 205T457 131Q504 131 537 146T596 179T643 212T686 227Q698 227 710 220T731 201T747 175T754 147Q754 114 722 79T638 16T525 -31T403 -49Q324 -49 258 -19T144 66T70 197T43 365Q43 465 72 549T154 694T279 790T436 825ZM585 -4Q594 22 619 33T683 45Q715
45 733 31T751 -8Q751 -30 743 -51T734 -84Q734 -99 747 -111T783 -137Q834 -168 856 -209T878 -291Q878 -327 859 -366T805 -437T721 -491T613 -512Q583 -512 548 -502T483 -474T433 -435T413 -391Q413 -373 426 -355T457 -323T492 -299T519 -289Q528 -289 540
-298T569 -319T605 -340T646 -350Q701 -350 701 -311Q701 -297 688 -283T652 -258Q624 -243 606 -231T577 -205T562 -178T558 -145Q558 -114 564 -80T585 -4Z" />
<glyph unicode="&#xe8;" glyph-name="egrave" horiz-adv-x="1057" d="M934 219Q963 244 991 244Q1007 244 1020 236T1049 211Q1064 188 1070 174T1077 145Q1077 115 1047 88Q999 48 943 17T826 -37T700 -70T571 -82Q490 -82 419 -62T293 -3T199 88T145 209Q136
237 129 245T104 254Q67 254 47 272T27 324Q27 338 29 342L31 362Q36 398 50 414T96 430H111Q153 430 170 469Q201 538 249 595T357 692T485 755T625 778Q699 778 763 757T876 697T951 608T979 498Q979 457 963 423T917 364T845 322T748 301L401 266Q381 266 369
256T356 229Q356 203 375 179T427 137T502 107T590 96Q633 96 678 104T768 129T855 167T934 219ZM711 477Q726 480 737 491T748 520Q748 535 737 548T707 571T663 588T610 594Q569 594 526 582T448 551T391 508T369 461Q369 438 397 438Q414 438 452 442T536 451T629
464T711 477ZM271 1457Q271 1469 282 1485T311 1516T349 1541T387 1551Q425 1551 467 1529T550 1472T627 1392T691 1303T735 1218T752 1150Q752 1138 744 1128T722 1110T692 1098T658 1093Q639 1093 625 1098T602 1117Q565 1179 527 1224T451 1302T382 1357T325
1397T286 1428T271 1457Z" />
<glyph unicode="&#xe9;" glyph-name="eacute" horiz-adv-x="1057" d="M934 219Q963 244 991 244Q1007 244 1020 236T1049 211Q1064 188 1070 174T1077 145Q1077 115 1047 88Q999 48 943 17T826 -37T700 -70T571 -82Q490 -82 419 -62T293 -3T199 88T145 209Q136
237 129 245T104 254Q67 254 47 272T27 324Q27 338 29 342L31 362Q36 398 50 414T96 430H111Q153 430 170 469Q201 538 249 595T357 692T485 755T625 778Q699 778 763 757T876 697T951 608T979 498Q979 457 963 423T917 364T845 322T748 301L401 266Q381 266 369
256T356 229Q356 203 375 179T427 137T502 107T590 96Q633 96 678 104T768 129T855 167T934 219ZM711 477Q726 480 737 491T748 520Q748 535 737 548T707 571T663 588T610 594Q569 594 526 582T448 551T391 508T369 461Q369 438 397 438Q414 438 452 442T536 451T629
464T711 477ZM858 1201Q858 1186 844 1172T805 1141T747 1102T678 1047T602 969T526 861Q518 847 504 842T471 837Q454 837 438 841T408 853T386 871T377 894Q377 921 393 961T437 1046T501 1135T578 1215T660 1273T741 1295Q759 1295 779 1285T817 1261T846 1230T858
1201Z" />
<glyph unicode="&#xea;" glyph-name="ecircumflex" horiz-adv-x="1057" d="M934 219Q963 244 991 244Q1007 244 1020 236T1049 211Q1064 188 1070 174T1077 145Q1077 115 1047 88Q999 48 943 17T826 -37T700 -70T571 -82Q490 -82 419 -62T293 -3T199 88T145 209Q136
237 129 245T104 254Q67 254 47 272T27 324Q27 338 29 342L31 362Q36 398 50 414T96 430H111Q153 430 170 469Q201 538 249 595T357 692T485 755T625 778Q699 778 763 757T876 697T951 608T979 498Q979 457 963 423T917 364T845 322T748 301L401 266Q381 266 369
256T356 229Q356 203 375 179T427 137T502 107T590 96Q633 96 678 104T768 129T855 167T934 219ZM711 477Q726 480 737 491T748 520Q748 535 737 548T707 571T663 588T610 594Q569 594 526 582T448 551T391 508T369 461Q369 438 397 438Q414 438 452 442T536 451T629
464T711 477ZM452 1000Q437 982 420 972T385 962Q369 962 354 968T327 985T308 1008T301 1033Q301 1049 316 1073T356 1125T411 1180T473 1229T532 1265T579 1279Q607 1279 644 1267T720 1234T798 1189T866 1137T915 1085T934 1041Q934 1025 923 1008T897 978T863
956T831 947Q817 947 798 958T757 986T710 1023T663 1059T617 1087T577 1099Q561 1099 545 1090T512 1066T480 1034T452 1000Z" />
<glyph unicode="&#xeb;" glyph-name="edieresis" horiz-adv-x="1057" d="M934 219Q963 244 991 244Q1007 244 1020 236T1049 211Q1064 188 1070 174T1077 145Q1077 115 1047 88Q999 48 943 17T826 -37T700 -70T571 -82Q490 -82 419 -62T293 -3T199 88T145 209Q136
237 129 245T104 254Q67 254 47 272T27 324Q27 338 29 342L31 362Q36 398 50 414T96 430H111Q153 430 170 469Q201 538 249 595T357 692T485 755T625 778Q699 778 763 757T876 697T951 608T979 498Q979 457 963 423T917 364T845 322T748 301L401 266Q381 266 369
256T356 229Q356 203 375 179T427 137T502 107T590 96Q633 96 678 104T768 129T855 167T934 219ZM711 477Q726 480 737 491T748 520Q748 535 737 548T707 571T663 588T610 594Q569 594 526 582T448 551T391 508T369 461Q369 438 397 438Q414 438 452 442T536 451T629
464T711 477ZM424 935Q395 935 370 943T326 967T296 1004T285 1050Q285 1092 318 1118T408 1144Q434 1144 458 1135T500 1109T530 1072T541 1027Q541 984 510 960T424 935ZM772 935Q743 935 718 943T674 967T644 1004T633 1050Q633 1092 666 1118T756 1144Q782
1144 806 1135T848 1109T878 1072T889 1027Q889 984 858 960T772 935Z" />
<glyph unicode="&#xec;" glyph-name="igrave" horiz-adv-x="444" d="M92 674Q92 692 103 706T132 731T173 748T221 754Q230 754 242 752T266 745T286 732T297 713Q314 535 326 359T338 2Q338 -19 325 -37T291 -68T246 -90T199 -98Q171 -98 152 -85T133 -41Q133
140 122 317T92 674ZM-105 1189Q-105 1201 -94 1217T-65 1248T-27 1273T11 1283Q49 1283 91 1261T174 1204T251 1124T315 1035T359 950T376 882Q376 870 368 860T346 842T316 830T282 825Q263 825 249 830T226 849Q189 911 151 956T75 1034T6 1089T-51 1129T-90
1160T-105 1189Z" />
<glyph unicode="&#xed;" glyph-name="iacute" horiz-adv-x="444" d="M92 674Q92 692 103 706T132 731T173 748T221 754Q230 754 242 752T266 745T286 732T297 713Q314 535 326 359T338 2Q338 -19 325 -37T291 -68T246 -90T199 -98Q171 -98 152 -85T133 -41Q133
140 122 317T92 674ZM482 1189Q482 1174 468 1160T429 1129T371 1090T302 1035T226 957T150 849Q142 835 128 830T95 825Q78 825 62 829T32 841T10 859T1 882Q1 909 17 949T61 1034T125 1123T202 1203T284 1261T365 1283Q383 1283 403 1273T441 1249T470 1218T482
1189Z" />
<glyph unicode="&#xee;" glyph-name="icircumflex" horiz-adv-x="444" d="M92 674Q92 692 103 706T132 731T173 748T221 754Q230 754 242 752T266 745T286 732T297 713Q314 535 326 359T338 2Q338 -19 325 -37T291 -68T246 -90T199 -98Q171 -98 152 -85T133 -41Q133
140 122 317T92 674ZM76 988Q61 970 44 960T9 950Q-7 950 -22 956T-49 973T-68 996T-75 1021Q-75 1037 -60 1061T-20 1113T35 1168T97 1217T156 1253T203 1267Q231 1267 268 1255T344 1222T422 1177T490 1125T539 1073T558 1029Q558 1013 547 996T521 966T487 944T455
935Q441 935 422 946T381 974T334 1011T287 1047T241 1075T201 1087Q185 1087 169 1078T136 1054T104 1022T76 988Z" />
<glyph unicode="&#xef;" glyph-name="idieresis" horiz-adv-x="444" d="M92 674Q92 692 103 706T132 731T173 748T221 754Q230 754 242 752T266 745T286 732T297 713Q314 535 326 359T338 2Q338 -19 325 -37T291 -68T246 -90T199 -98Q171 -98 152 -85T133 -41Q133
140 122 317T92 674ZM48 923Q19 923 -6 931T-50 955T-80 992T-91 1038Q-91 1080 -58 1106T32 1132Q58 1132 82 1123T124 1097T154 1060T165 1015Q165 972 134 948T48 923ZM396 923Q367 923 342 931T298 955T268 992T257 1038Q257 1080 290 1106T380 1132Q406 1132
430 1123T472 1097T502 1060T513 1015Q513 972 482 948T396 923Z" />
<glyph unicode="&#xf0;" glyph-name="eth" horiz-adv-x="1038" d="M707 573Q688 568 665 561T620 546T577 535T545 530Q533 530 521 536T498 555T480 586T473 627Q473 642 480 655T503 679T547 702T614 725Q627 728 631 731T635 739Q635 745 625 754T597 773T559
788T514 795Q468 795 437 785T384 761T344 738T309 727Q298 727 284 732T236 760Q216 772 203 788T190 825Q190 848 211 872Q257 920 328 946T492 973Q597 973 684 928T831 811Q838 803 844 801T856 799Q872 799 896 808T946 817Q959 817 972 812T997 796T1015
766T1022 721Q1022 678 950 649Q934 643 934 633Q934 625 938 612T948 579T958 530T963 465Q963 390 940 322T875 195T776 89T653 7T513 -45T365 -63Q303 -63 245 -46T142 4T70 87T43 201Q43 268 77 316T167 395T292 442T432 457Q468 457 503 454T568 447T624 437T668
426Q688 420 701 415T729 410Q745 410 752 428T760 489Q760 508 758 527T750 565Q747 578 729 578Q724 578 719 577T707 573ZM252 182Q252 164 263 152T290 132T325 122T360 119Q381 119 409 124T468 138T528 159T581 185T618 214T633 244Q633 251 625 258T598
271T548 279T471 283Q453 283 417 280T344 267T280 236T252 182Z" />
<glyph unicode="&#xf1;" glyph-name="ntilde" horiz-adv-x="973" d="M100 807Q100 822 113 836T147 862T194 881T248 889Q263 889 273 881T292 851T306 788T319 682Q323 662 326 652T336 641Q345 641 354 672Q427 883 565 883Q629 883 681 843T779 713T866 475T948
111Q950 100 951 91T952 74Q952 51 942 35T914 8T876 -8T834 -14Q792 -14 774 -5T750 29Q721 181 694 299T640 497T587 620T535 662Q509 662 487 630T443 528T403 353T365 100Q360 60 325 36T236 12Q200 12 181 27T160 68Q151 276 141 410T121 626T106 748T100
807ZM251 1112Q220 1112 203 1135T186 1200Q186 1246 226 1270T356 1294Q380 1294 411 1289T478 1277T550 1266T622 1263Q650 1264 677 1271T729 1287T773 1301T809 1308Q855 1308 872 1287T890 1208Q890 1184 868 1164T809 1129T729 1106T641 1097Q610 1097 573
1101T500 1111T431 1121T376 1126Q339 1126 308 1119T251 1112Z" />
<glyph unicode="&#xf2;" glyph-name="ograve" horiz-adv-x="1063" d="M96 332Q96 349 100 370T104 416Q104 433 90 442T57 462T25 490T10 539Q10 562 22 585T59 627Q118 671 181 706T308 765T434 802T553 815Q649 815 733 780T880 683T979 539T1016 362Q1016 270
978 188T874 43T722 -55T537 -92Q442 -92 361 -60T221 28T129 162T96 332ZM559 88Q601 88 646 105T728 154T790 234T815 340Q815 400 793 452T733 542T642 603T528 625Q417 625 358 568T299 391Q299 326 318 271T373 175T455 111T559 88ZM246 1473Q246 1485 257
1501T286 1532T324 1557T362 1567Q400 1567 442 1545T525 1488T602 1408T666 1319T710 1234T727 1166Q727 1154 719 1144T697 1126T667 1114T633 1109Q614 1109 600 1114T577 1133Q540 1195 502 1240T426 1318T357 1373T300 1413T261 1444T246 1473Z" />
<glyph unicode="&#xf3;" glyph-name="oacute" horiz-adv-x="1063" d="M96 332Q96 349 100 370T104 416Q104 433 90 442T57 462T25 490T10 539Q10 562 22 585T59 627Q118 671 181 706T308 765T434 802T553 815Q649 815 733 780T880 683T979 539T1016 362Q1016 270
978 188T874 43T722 -55T537 -92Q442 -92 361 -60T221 28T129 162T96 332ZM559 88Q601 88 646 105T728 154T790 234T815 340Q815 400 793 452T733 542T642 603T528 625Q417 625 358 568T299 391Q299 326 318 271T373 175T455 111T559 88ZM834 1217Q834 1202 820
1188T781 1157T723 1118T654 1063T578 985T502 877Q494 863 480 858T447 853Q430 853 414 857T384 869T362 887T353 910Q353 937 369 977T413 1062T477 1151T554 1231T636 1289T717 1311Q735 1311 755 1301T793 1277T822 1246T834 1217Z" />
<glyph unicode="&#xf4;" glyph-name="ocircumflex" horiz-adv-x="1063" d="M96 332Q96 349 100 370T104 416Q104 433 90 442T57 462T25 490T10 539Q10 562 22 585T59 627Q118 671 181 706T308 765T434 802T553 815Q649 815 733 780T880 683T979 539T1016 362Q1016
270 978 188T874 43T722 -55T537 -92Q442 -92 361 -60T221 28T129 162T96 332ZM559 88Q601 88 646 105T728 154T790 234T815 340Q815 400 793 452T733 542T642 603T528 625Q417 625 358 568T299 391Q299 326 318 271T373 175T455 111T559 88ZM428 1016Q413 998
396 988T361 978Q345 978 330 984T303 1001T284 1024T277 1049Q277 1065 292 1089T332 1141T387 1196T449 1245T508 1281T555 1295Q583 1295 620 1283T696 1250T774 1205T842 1153T891 1101T910 1057Q910 1041 899 1024T873 994T839 972T807 963Q793 963 774 974T733
1002T686 1039T639 1075T593 1103T553 1115Q537 1115 521 1106T488 1082T456 1050T428 1016Z" />
<glyph unicode="&#xf5;" glyph-name="otilde" horiz-adv-x="1063" d="M96 332Q96 349 100 370T104 416Q104 433 90 442T57 462T25 490T10 539Q10 562 22 585T59 627Q118 671 181 706T308 765T434 802T553 815Q649 815 733 780T880 683T979 539T1016 362Q1016 270
978 188T874 43T722 -55T537 -92Q442 -92 361 -60T221 28T129 162T96 332ZM559 88Q601 88 646 105T728 154T790 234T815 340Q815 400 793 452T733 542T642 603T528 625Q417 625 358 568T299 391Q299 326 318 271T373 175T455 111T559 88ZM266 1287Q235 1287 218
1310T201 1375Q201 1421 241 1445T371 1469Q395 1469 426 1464T493 1452T565 1441T637 1438Q665 1439 692 1446T744 1462T788 1476T824 1483Q870 1483 887 1462T905 1383Q905 1359 883 1339T824 1304T744 1281T656 1272Q625 1272 588 1276T515 1286T446 1296T391
1301Q354 1301 323 1294T266 1287Z" />
<glyph unicode="&#xf6;" glyph-name="odieresis" horiz-adv-x="1063" d="M96 332Q96 349 100 370T104 416Q104 433 90 442T57 462T25 490T10 539Q10 562 22 585T59 627Q118 671 181 706T308 765T434 802T553 815Q649 815 733 780T880 683T979 539T1016 362Q1016
270 978 188T874 43T722 -55T537 -92Q442 -92 361 -60T221 28T129 162T96 332ZM559 88Q601 88 646 105T728 154T790 234T815 340Q815 400 793 452T733 542T642 603T528 625Q417 625 358 568T299 391Q299 326 318 271T373 175T455 111T559 88ZM399 951Q370 951 345
959T301 983T271 1020T260 1066Q260 1108 293 1134T383 1160Q409 1160 433 1151T475 1125T505 1088T516 1043Q516 1000 485 976T399 951ZM747 951Q718 951 693 959T649 983T619 1020T608 1066Q608 1108 641 1134T731 1160Q757 1160 781 1151T823 1125T853 1088T864
1043Q864 1000 833 976T747 951Z" />
<glyph unicode="&#xf7;" glyph-name="divide" horiz-adv-x="989" d="M479 743Q450 743 425 752T380 776T351 813T340 858Q340 900 373 926T463 952Q489 952 513 943T555 917T585 880T596 836Q596 792 565 768T479 743ZM479 109Q450 109 425 117T380 141T351 178T340
223Q340 265 373 291T463 317Q489 317 513 308T555 282T585 245T596 201Q596 157 565 133T479 109ZM100 401Q55 401 37 425T29 494L35 514Q50 586 125 586Q318 589 510 600T895 621Q937 623 957 602T975 539L973 520Q970 441 891 438Q693 429 496 417T100 401Z"
/>
<glyph unicode="&#xf8;" glyph-name="oslash" horiz-adv-x="1063" d="M502 1010Q505 1070 565 1079L616 1083Q642 1083 656 1069T670 1030L598 -344Q595 -405 535 -414L481 -418Q455 -418 443 -401T430 -352L502 1010V1010ZM96 332Q96 349 100 370T104 416Q104
433 90 442T57 462T25 490T10 539Q10 562 22 585T59 627Q118 671 181 706T308 765T434 802T553 815Q649 815 733 780T880 683T979 539T1016 362Q1016 270 978 188T874 43T722 -55T537 -92Q442 -92 361 -60T221 28T129 162T96 332ZM559 88Q601 88 646 105T728 154T790
234T815 340Q815 400 793 452T733 542T642 603T528 625Q417 625 358 568T299 391Q299 326 318 271T373 175T455 111T559 88Z" />
<glyph unicode="&#xf9;" glyph-name="ugrave" horiz-adv-x="961" d="M293 354Q293 220 334 147T453 74Q502 74 543 103T615 184T661 307T678 463Q678 514 674 551T666 618T657 671T653 715Q653 747 680 761T766 776Q841 776 882 742T924 643Q924 466 890 325T791
86T634 -66T428 -119Q347 -119 279 -86T161 8T83 152T55 336Q55 374 57 417T63 509T73 617T88 743Q91 772 115 789T178 807Q212 807 242 800T293 781T327 753T340 719Q340 701 333 663T317 575T301 468T293 354ZM432 1463Q432 1475 443 1491T472 1522T510 1547T548
1557Q586 1557 628 1535T711 1478T788 1398T852 1309T896 1224T913 1156Q913 1144 905 1134T883 1116T853 1104T819 1099Q800 1099 786 1104T763 1123Q726 1185 688 1230T612 1308T543 1363T486 1403T447 1434T432 1463Z" />
<glyph unicode="&#xfa;" glyph-name="uacute" horiz-adv-x="961" d="M293 354Q293 220 334 147T453 74Q502 74 543 103T615 184T661 307T678 463Q678 514 674 551T666 618T657 671T653 715Q653 747 680 761T766 776Q841 776 882 742T924 643Q924 466 890 325T791
86T634 -66T428 -119Q347 -119 279 -86T161 8T83 152T55 336Q55 374 57 417T63 509T73 617T88 743Q91 772 115 789T178 807Q212 807 242 800T293 781T327 753T340 719Q340 701 333 663T317 575T301 468T293 354ZM762 1463Q762 1448 748 1434T709 1403T651 1364T582
1309T506 1231T430 1123Q422 1109 408 1104T375 1099Q358 1099 342 1103T312 1115T290 1133T281 1156Q281 1183 297 1223T341 1308T405 1397T482 1477T564 1535T645 1557Q663 1557 683 1547T721 1523T750 1492T762 1463Z" />
<glyph unicode="&#xfb;" glyph-name="ucircumflex" horiz-adv-x="961" d="M293 354Q293 220 334 147T453 74Q502 74 543 103T615 184T661 307T678 463Q678 514 674 551T666 618T657 671T653 715Q653 747 680 761T766 776Q841 776 882 742T924 643Q924 466 890
325T791 86T634 -66T428 -119Q347 -119 279 -86T161 8T83 152T55 336Q55 374 57 417T63 509T73 617T88 743Q91 772 115 789T178 807Q212 807 242 800T293 781T327 753T340 719Q340 701 333 663T317 575T301 468T293 354ZM356 1262Q341 1244 324 1234T289 1224Q273
1224 258 1230T231 1247T212 1270T205 1295Q205 1311 220 1335T260 1387T315 1442T377 1491T436 1527T483 1541Q511 1541 548 1529T624 1496T702 1451T770 1399T819 1347T838 1303Q838 1287 827 1270T801 1240T767 1218T735 1209Q721 1209 702 1220T661 1248T614
1285T567 1321T521 1349T481 1361Q465 1361 449 1352T416 1328T384 1296T356 1262Z" />
<glyph unicode="&#xfc;" glyph-name="udieresis" horiz-adv-x="961" d="M293 354Q293 220 334 147T453 74Q502 74 543 103T615 184T661 307T678 463Q678 514 674 551T666 618T657 671T653 715Q653 747 680 761T766 776Q841 776 882 742T924 643Q924 466 890 325T791
86T634 -66T428 -119Q347 -119 279 -86T161 8T83 152T55 336Q55 374 57 417T63 509T73 617T88 743Q91 772 115 789T178 807Q212 807 242 800T293 781T327 753T340 719Q340 701 333 663T317 575T301 468T293 354ZM327 1197Q298 1197 273 1205T229 1229T199 1266T188
1312Q188 1354 221 1380T311 1406Q337 1406 361 1397T403 1371T433 1334T444 1289Q444 1246 413 1222T327 1197ZM675 1197Q646 1197 621 1205T577 1229T547 1266T536 1312Q536 1354 569 1380T659 1406Q685 1406 709 1397T751 1371T781 1334T792 1289Q792 1246 761
1222T675 1197Z" />
<glyph unicode="&#xfd;" glyph-name="yacute" horiz-adv-x="1008" d="M500 -27Q440 -27 380 2T265 83T163 203T81 353T26 522T6 698Q6 766 34 795T125 825Q204 825 213 760Q231 622 263 511T338 322T435 202T549 160Q592 160 630 181T696 242Q706 257 709 271T715
303Q720 374 726 442T739 580Q741 610 747 629T765 659T796 674T846 678Q880 678 904 669T943 638T964 582T971 496Q971 452 965 420T950 359T934 303T924 242Q919 159 915 99T909 -5T905 -79T902 -134T901 -181T901 -229Q901 -276 905 -331T913 -438T922 -528T926
-582Q926 -601 914 -618T882 -648T835 -668T778 -676Q752 -676 737 -659T719 -612Q716 -574 714 -520T710 -404T708 -279T706 -161T705 -65T705 -6Q705 12 701 19T686 27Q680 27 670 24T647 12Q612 -9 576 -18T500 -27ZM803 1193Q803 1178 789 1164T750 1133T692
1094T623 1039T547 961T471 853Q463 839 449 834T416 829Q399 829 383 833T353 845T331 863T322 886Q322 913 338 953T382 1038T446 1127T523 1207T605 1265T686 1287Q704 1287 724 1277T762 1253T791 1222T803 1193Z" />
<glyph unicode="&#xfe;" glyph-name="thorn" horiz-adv-x="1081" d="M106 408Q94 596 67 782T8 1157Q6 1165 6 1171T6 1184Q6 1189 6 1194T8 1204Q17 1238 46 1257T125 1276Q182 1276 205 1219Q215 1190 225 1136T247 1011T270 856T291 682Q294 657 307 657Q318
657 330 672Q476 864 676 864Q751 864 816 831T929 741T1004 606T1032 438Q1032 354 1006 282T932 158T821 77T680 47Q598 47 520 76T369 162Q359 170 351 173T336 176Q325 176 319 165T313 135Q313 64 312 1T307 -125L295 -319Q293 -357 270 -378T186 -406Q180
-408 174 -408T162 -408Q128 -408 111 -390T94 -340V-330Q98 -244 102 -170T108 -31T111 90T113 199Q113 254 112 305T106 408ZM641 678Q601 678 562 659T487 606T422 526T373 424Q370 413 370 409T369 401Q369 384 381 375Q458 304 534 266T676 227Q748 227 785
269T823 391Q823 453 809 505T771 596T714 656T641 678Z" />
<glyph unicode="&#xff;" glyph-name="ydieresis" horiz-adv-x="1008" d="M500 -27Q440 -27 380 2T265 83T163 203T81 353T26 522T6 698Q6 766 34 795T125 825Q204 825 213 760Q231 622 263 511T338 322T435 202T549 160Q592 160 630 181T696 242Q706 257 709 271T715
303Q720 374 726 442T739 580Q741 610 747 629T765 659T796 674T846 678Q880 678 904 669T943 638T964 582T971 496Q971 452 965 420T950 359T934 303T924 242Q919 159 915 99T909 -5T905 -79T902 -134T901 -181T901 -229Q901 -276 905 -331T913 -438T922 -528T926
-582Q926 -601 914 -618T882 -648T835 -668T778 -676Q752 -676 737 -659T719 -612Q716 -574 714 -520T710 -404T708 -279T706 -161T705 -65T705 -6Q705 12 701 19T686 27Q680 27 670 24T647 12Q612 -9 576 -18T500 -27ZM368 1183Q339 1183 314 1191T270 1215T240
1252T229 1298Q229 1340 262 1366T352 1392Q378 1392 402 1383T444 1357T474 1320T485 1275Q485 1232 454 1208T368 1183ZM716 1183Q687 1183 662 1191T618 1215T588 1252T577 1298Q577 1340 610 1366T700 1392Q726 1392 750 1383T792 1357T822 1320T833 1275Q833
1232 802 1208T716 1183Z" />
<glyph unicode="&#x2013;" glyph-name="endash" horiz-adv-x="1255" d="M0 391Q-47 391 -47 432Q-47 435 -47 439T-45 449L-25 530Q-15 575 31 575H1286Q1333 575 1333 535Q1333 531 1333 527T1331 518L1311 436Q1302 391 1255 391H0V391Z" />
<glyph unicode="&#x2014;" glyph-name="emdash" horiz-adv-x="1522" d="M0 391Q-47 391 -47 432Q-47 435 -47 439T-45 449L-25 530Q-15 575 31 575H1552Q1599 575 1599 535Q1599 531 1599 527T1597 518L1577 436Q1568 391 1522 391H0V391Z" />
<glyph unicode="&#x2018;" glyph-name="quoteleft" horiz-adv-x="643" d="M147 567Q147 578 162 619T201 715T258 831T323 943T387 1027T444 1061Q456 1061 474 1054T508 1037T537 1014T549 989Q549 979 529 940T478 838T414 694T354 520Q348 500 337 489T307
477Q289 477 262 484T210 504T166 533T147 567Z" />
<glyph unicode="&#x2019;" glyph-name="quoteright" horiz-adv-x="643" d="M496 971Q496 960 481 919T442 823T385 707T320 595T256 511T199 477Q187 477 169 484T135 501T106 524T94 549Q94 559 114 598T165 700T229 844T289 1018Q295 1038 306 1049T336 1061Q354
1061 381 1054T433 1034T477 1005T496 971Z" />
<glyph unicode="&#x201a;" glyph-name="quotesinglbase" horiz-adv-x="643" d="M401 182Q406 171 407 142T408 66Q408 -70 398 -159T369 -300T325 -372T270 -393Q258 -393 245 -391T221 -383T202 -368T195 -344Q195 -313 200 -244T205 -78Q205 -28 203 9T198 75T193
123T190 158Q190 193 223 205T305 217Q337 217 365 209T401 182Z" />
<glyph unicode="&#x201c;" glyph-name="quotedblleft" horiz-adv-x="973" d="M477 567Q477 578 492 619T531 715T588 831T653 943T717 1027T774 1061Q786 1061 804 1054T838 1037T867 1014T879 989Q879 979 859 940T808 838T744 694T684 520Q678 500 667 489T637
477Q619 477 592 484T540 504T496 533T477 567ZM147 567Q147 578 162 619T201 715T258 831T323 943T387 1027T444 1061Q456 1061 474 1054T508 1037T537 1014T549 989Q549 979 529 940T478 838T414 694T354 520Q348 500 337 489T307 477Q289 477 262 484T210 504T166
533T147 567Z" />
<glyph unicode="&#x201d;" glyph-name="quotedblright" horiz-adv-x="973" d="M496 971Q496 960 481 919T442 823T385 707T320 595T256 511T199 477Q187 477 169 484T135 501T106 524T94 549Q94 559 114 598T165 700T229 844T289 1018Q295 1038 306 1049T336 1061Q354
1061 381 1054T433 1034T477 1005T496 971ZM826 971Q826 960 811 919T772 823T715 707T650 595T586 511T529 477Q517 477 499 484T465 501T436 524T424 549Q424 559 444 598T495 700T559 844T619 1018Q625 1038 636 1049T666 1061Q684 1061 711 1054T763 1034T807
1005T826 971Z" />
<glyph unicode="&#x201e;" glyph-name="quotedblbase" horiz-adv-x="973" d="M401 182Q406 171 407 142T408 66Q408 -70 398 -159T369 -300T325 -372T270 -393Q258 -393 245 -391T221 -383T202 -368T195 -344Q195 -313 200 -244T205 -78Q205 -28 203 9T198 75T193
123T190 158Q190 193 223 205T305 217Q337 217 365 209T401 182ZM731 182Q736 171 737 142T738 66Q738 -70 728 -159T699 -300T655 -372T600 -393Q588 -393 575 -391T551 -383T532 -368T525 -344Q525 -313 530 -244T535 -78Q535 -28 533 9T528 75T523 123T520 158Q520
193 553 205T635 217Q667 217 695 209T731 182Z" />
<glyph unicode="&#x2022;" glyph-name="bullet" horiz-adv-x="743" d="M395 276Q338 276 288 292T201 336T143 405T121 494Q121 534 138 569T187 631T263 673T362 688Q414 688 461 670T546 622T605 550T627 463Q627 421 611 387T564 328T491 290T395 276Z" />
<glyph unicode="&#x2039;" glyph-name="guilsinglleft" horiz-adv-x="555" d="M313 702Q340 729 373 729Q386 729 401 724T428 709T449 687T457 662Q457 639 433 612T378 556T324 495T299 434Q299 412 313 392T349 351T396 312T443 275T479 240T494 207Q494 193
488 181T469 154Q447 129 431 119T397 109Q385 109 372 114T346 129Q309 156 267 189T188 258T127 332T102 408Q102 439 124 479T178 559T247 637T313 702Z" />
<glyph unicode="&#x203a;" glyph-name="guilsinglright" horiz-adv-x="555" d="M242 98Q215 72 182 72Q169 72 154 77T127 92T106 114T98 139Q98 161 122 188T177 245T231 306T256 367Q256 388 242 409T206 450T159 489T112 526T76 561T61 594Q61 619 86 647Q108
672 124 682T158 692Q170 692 183 687T209 672Q246 645 288 612T367 543T428 469T453 393Q453 361 431 322T377 241T308 163T242 98Z" />
</font>
</defs>
</svg>
